  0
SECTION
  2
HEADER
  9
$ACADVER
  1
AC1014
  9
$ACADMAINTVER
 70
           0
  9
$DWGCODEPAGE
  3
DOS932
  9
$INSBASE
 10
0.0
 20
0.0
 30
0.0
  9
$EXTMIN
 10
1.000000000000E+20
 20
1.000000000000E+20
 30
1.000000000000E+20
  9
$EXTMAX
 10
-1.000000000000E+20
 20
-1.000000000000E+20
 30
-1.000000000000E+20
  9
$LIMMIN
 10
0.0
 20
0.0
  9
$LIMMAX
 10
0.0
 20
0.0
  9
$ORTHOMODE
 70
           0
  9
$REGENMODE
 70
           1
  9
$FILLMODE
 70
           1
  9
$QTEXTMODE
 70
           0
  9
$MIRRTEXT
 70
           1
  9
$DRAGMODE
 70
           2
  9
$LTSCALE
 40
1.0
  9
$OSMODE
 70
           0
  9
$ATTMODE
 70
           1
  9
$TEXTSIZE
 40
0.2
  9
$TRACEWID
 40
0.05
  9
$TEXTSTYLE
  7
STANDARD
  9
$CLAYER
  8
0
  9
$CELTYPE
  6
CONTINUOUS
  9
$CECOLOR
 62
         256
  9
$CELTSCALE
 40
1.0
  9
$DELOBJ
 70
           1
  9
$DISPSILH
 70
           0
  9
$DIMSCALE
 40
1.0
  9
$DIMASZ
 40
0.18
  9
$DIMEXO
 40
0.0625
  9
$DIMDLI
 40
0.38
  9
$DIMRND
 40
0.0
  9
$DIMDLE
 40
0.0
  9
$DIMEXE
 40
0.18
  9
$DIMTP
 40
0.0
  9
$DIMTM
 40
0.0
  9
$DIMTXT
 40
0.18
  9
$DIMCEN
 40
0.09
  9
$DIMTSZ
 40
0.0
  9
$DIMTOL
 70
           0
  9
$DIMLIM
 70
           0
  9
$DIMTIH
 70
           1
  9
$DIMTOH
 70
           1
  9
$DIMSE1
 70
           0
  9
$DIMSE2
 70
           0
  9
$DIMTAD
 70
           0
  9
$DIMZIN
 70
           0
  9
$DIMBLK
  1

  9
$DIMASO
 70
           1
  9
$DIMSHO
 70
           1
  9
$DIMPOST
  1

  9
$DIMAPOST
  1

  9
$DIMALT
 70
           0
  9
$DIMALTD
 70
           2
  9
$DIMALTF
 40
25.4
  9
$DIMLFAC
 40
1.0
  9
$DIMTOFL
 70
           0
  9
$DIMTVP
 40
0.0
  9
$DIMTIX
 70
           0
  9
$DIMSOXD
 70
           0
  9
$DIMSAH
 70
           0
  9
$DIMBLK1
  1

  9
$DIMBLK2
  1

  9
$DIMSTYLE
  2
STANDARD
  9
$DIMCLRD
 70
           0
  9
$DIMCLRE
 70
           0
  9
$DIMCLRT
 70
           0
  9
$DIMTFAC
 40
1.0
  9
$DIMGAP
 40
0.09
  9
$DIMJUST
 70
           0
  9
$DIMSD1
 70
           0
  9
$DIMSD2
 70
           0
  9
$DIMTOLJ
 70
           1
  9
$DIMTZIN
 70
           0
  9
$DIMALTZ
 70
           0
  9
$DIMALTTZ
 70
           0
  9
$DIMFIT
 70
           3
  9
$DIMUPT
 70
           0
  9
$DIMUNIT
 70
           2
  9
$DIMDEC
 70
           4
  9
$DIMTDEC
 70
           4
  9
$DIMALTU
 70
           2
  9
$DIMALTTD
 70
           2
  9
$DIMTXSTY
  7
STANDARD
  9
$DIMAUNIT
 70
           0
  9
$LUNITS
 70
           2
  9
$LUPREC
 70
           4
  9
$SKETCHINC
 40
0.1
  9
$FILLETRAD
 40
0.0
  9
$AUNITS
 70
           0
  9
$AUPREC
 70
           0
  9
$MENU
  1
acad
  9
$ELEVATION
 40
0.0
  9
$PELEVATION
 40
0.0
  9
$THICKNESS
 40
0.0
  9
$LIMCHECK
 70
           0
  9
$BLIPMODE
 70
           1
  9
$CHAMFERA
 40
0.0
  9
$CHAMFERB
 40
0.0
  9
$CHAMFERC
 40
0.0
  9
$CHAMFERD
 40
0.0
  9
$SKPOLY
 70
           0
  9
$TDCREATE
 40
0.000000000
  9
$TDUPDATE
 40
0.000000000
  9
$TDINDWG
 40
0.0000000000
  9
$TDUSRTIMER
 40
0.0000000000
  9
$USRTIMER
 70
           1
  9
$ANGBASE
 50
0.0
  9
$ANGDIR
 70
           0
  9
$PDMODE
 70
           0
  9
$PDSIZE
 40
0.0
  9
$PLINEWID
 40
0.0
  9
$COORDS
 70
           0
  9
$SPLFRAME
 70
           0
  9
$SPLINETYPE
 70
           6
  9
$SPLINESEGS
 70
           8
  9
$ATTDIA
 70
           0
  9
$ATTREQ
 70
           1
  9
$HANDLING
 70
           1
  9
$HANDSEED
  5
66A
  9
$SURFTAB1
 70
           6
  9
$SURFTAB2
 70
           6
  9
$SURFTYPE
 70
           6
  9
$SURFU
 70
           6
  9
$SURFV
 70
           6
  9
$UCSNAME
  2

  9
$UCSORG
 10
0.0
 20
0.0
 30
0.0
  9
$UCSXDIR
 10
1.0
 20
0.0
 30
0.0
  9
$UCSYDIR
 10
0.0
 20
1.0
 30
0.0
  9
$PUCSNAME
  2

  9
$PUCSORG
 10
0.0
 20
0.0
 30
0.0
  9
$PUCSXDIR
 10
1.0
 20
0.0
 30
0.0
  9
$PUCSYDIR
 10
0.0
 20
1.0
 30
0.0
  9
$USERI1
 70
           0
  9
$USERI2
 70
           0
  9
$USERI3
 70
           0
  9
$USERI4
 70
           0
  9
$USERI5
 70
           0
  9
$USERR1
 40
0.0
  9
$USERR2
 40
0.0
  9
$USERR3
 40
0.0
  9
$USERR4
 40
0.0
  9
$USERR5
 40
0.0
  9
$WORLDVIEW
 70
           1
  9
$SHADEDGE
 70
           3
  9
$SHADEDIF
 70
          70
  9
$TILEMODE
 70
           1
  9
$MAXACTVP
 70
          16
  9
$PINSBASE
 10
0.0
 20
0.0
 30
0.0
  9
$PLIMCHECK
 70
           0
  9
$PEXTMIN
 10
1.000000000000E+20
 20
1.000000000000E+20
 30
1.000000000000E+20
  9
$PEXTMAX
 10
-1.000000000000E+20
 20
-1.000000000000E+20
 30
-1.000000000000E+20
  9
$PLIMMIN
 10
0.0
 20
0.0
  9
$PLIMMAX
 10
12.0
 20
9.0
  9
$UNITMODE
 70
           0
  9
$VISRETAIN
 70
           0
  9
$PLINEGEN
 70
           1
  9
$PSLTSCALE
 70
           0
  9
$TREEDEPTH
 70
        3020
  9
$PICKSTYLE
 70
           1
  9
$CMLSTYLE
  2
STANDARD
  9
$CMLJUST
 70
           0
  9
$CMLSCALE
 40
1.0
  9
$PROXYGRAPHICS
 70
           0
  9
$MEASUREMENT
 70
           1
  0
ENDSEC
  0
SECTION
  2
CLASSES
  0
CLASS
  1
LWPOLYLINE
  2
AcDbPolyline
  3
"AutoCAD"
 90
        0
280
           0
281
           1
  0
CLASS
  1
IMAGE
  2
AcDbRasterImage
  3
ISM
 90
      127
280
           0
281
           1
  0
CLASS
  1
OLE2FRAME
  2
AcDbOle2Frame
  3
""
 90
        0
280
           0
281
           1
  0
CLASS
  1
HATCH
  2
AcDbHatch
  3
"ACAD_SEDONA"
 90
        0
280
           0
281
           1
  0
CLASS
  1
DICTIONARYVAR
  2
AcDbDictionaryVar
  3
"AutoCAD"
 90
        0
280
           0
281
           0
  0
CLASS
  1
RASTERVARIABLES
  2
AcDbRasterVariables
  3
ISM
 90
        0
280
           0
281
           0
  0
CLASS
  1
IMAGEDEF
  2
AcDbRasterImageDef
  3
ISM
 90
        0
280
           0
281
           0
  0
CLASS
  1
IMAGEDEF_REACTOR
  2
AcDbRasterImageDefReactor
  3
ISM
 90
        1
280
           0
281
           0
  0
CLASS
  1
IDBUFFER
  2
AcDbIdBuffer
  3
"Acad"
 90
        0
280
           0
281
           0
  0
CLASS
  1
SPATIAL_FILTER
  2
AcDbSpatialFilter
  3
"Acad"
 90
        0
280
           0
281
           0
  0
CLASS
  1
XRECORD
  2
AcDbXrecord
  3
"<Built In>"
 90
        0
280
           0
281
           0
  0
CLASS
  1
SORTENTSTABLE
  2
AcDbSortentsTable
  3
"AutoCAD"
 90
        0
280
           0
281
           0
  0
CLASS
  1
LAYER_INDEX
  2
AcDbLayerIndex
  3
"Acad"
 90
        0
280
           0
281
           0
  0
CLASS
  1
SPATIAL_INDEX
  2
AcDbSpatialIndex
  3
"Acad"
 90
        0
280
           0
281
           0
  0
CLASS
  1
OBJECT_PTR
  2
CAseDLPNTableRecord
  3
"ASE-LPNTableRecord"
 90
        1
280
           0
281
           0
  0
CLASS
  1
LAYOUT
  2
AcDbLayout
  3
"AutoCAD 2000"
 90
        1
280
           0
281
           0
  0
CLASS
  1
PLOTSETTINGS
  2
AcDbPlotSettings
  3
"AutoCAD 2000"
 90
        1
280
           0
281
           0
  0
CLASS
  1
ACDBDICTIONARYWDFLT
  2
AcDbDictionaryWithDefault
  3
"AutoCAD 2000"
 90
        1
280
           0
281
           0
  0
CLASS
  1
ACDBPLACEHOLDER
  2
AcDbPlaceHolder
  3
"AutoCAD 2000"
 90
        1
280
           0
281
           0
  0
CLASS
  1
VBA_PROJECT
  2
AcDbVbaProject
  3
"acadvba"
 90
        1
280
           0
281
           0
  0
CLASS
  1
WIPEOUT
  2
AcDbWipeout
  3
WipeOut|AutoCAD Express Tool|expresstools@autodesk.com
 90
      127
280
           0
281
           1
  0
CLASS
  1
WIPEOUTVARIABLES
  2
AcDbWipeoutVariables
  3
WipeOut|AutoCAD Express Tool|expresstools@autodesk.com
 90
        0
280
           0
281
           0
  0
CLASS
  1
RTEXT
  2
RText
  3
RText|AutoCAD Express Tool|expresstools@autodesk.com
 90
        0
280
           0
281
           1
  0
CLASS
  1
ARCALIGNEDTEXT
  2
AcDbArcAlignedText
  3
ATEXT|AutoCAD Express Tool|expresstools@autodesk.com
 90
        0
280
           0
281
           1
  0
ENDSEC
  0
SECTION
  2
TABLES
  0
TABLE
  2
VPORT
  5
7
100
AcDbSymbolTable
 70
           1
  0
VPORT
  5
15
100
AcDbSymbolTableRecord
100
AcDbViewportTableRecord
  2
*ACTIVE
 70
           0
 10
0.0
 20
0.0
 11
1.0
 21
1.0
 12
6.591288
 22
4.579184
 13
0.0
 23
0.0
 14
1.0
 24
1.0
 15
0.0
 25
0.0
 16
0.0
 26
0.0
 36
1.0
 17
0.0
 27
0.0
 37
0.0
 40
9.158369
 41
0.688564
 42
50.0
 43
0.0
 44
0.0
 50
0.0
 51
0.0
 71
           0
 72
         100
 73
           1
 74
           1
 75
           0
 76
           0
 77
           0
 78
           0
  0
ENDTAB
  0
TABLE
  2
LTYPE
  5
4
100
AcDbSymbolTable
 70
          10
  0
LTYPE
  5
11
100
AcDbSymbolTableRecord
100
AcDbLinetypeTableRecord
  2
BYBLOCK
 70
          64
  3

 72
          65
 73
           0
 40
0.0
  0
LTYPE
  5
12
100
AcDbSymbolTableRecord
100
AcDbLinetypeTableRecord
  2
BYLAYER
 70
          64
  3

 72
          65
 73
           0
 40
0.0
  0
LTYPE
  5
13
100
AcDbSymbolTableRecord
100
AcDbLinetypeTableRecord
  2
CONTINUOUS
 70
          64
  3
Solid line
 72
          65
 73
           0
 40
0.0
  0
LTYPE
  5
1D
100
AcDbSymbolTableRecord
100
AcDbLinetypeTableRecord
  2
DASHED
 70
          64
  3
Dashed
 72
          65
 73
           2
 40
15.0
 49
12.0
 74
           0
 49
-3.0
 74
           0
  0
LTYPE
  5
1E
100
AcDbSymbolTableRecord
100
AcDbLinetypeTableRecord
  2
DOTTED
 70
          64
  3
Dotted
 72
          65
 73
           2
 40
3.5
 49
0.5
 74
           0
 49
-3.0
 74
           0
  0
LTYPE
  5
1F
100
AcDbSymbolTableRecord
100
AcDbLinetypeTableRecord
  2
DOT_CENTER
 70
          64
  3
Dot_Center
 72
          65
 73
           4
 40
2.0
 49
1.25
 74
           0
 49
-0.25
 74
           0
 49
0.25
 74
           0
 49
-0.25
 74
           0
  0
LTYPE
  5
20
100
AcDbSymbolTableRecord
100
AcDbLinetypeTableRecord
  2
LONG_DASHED
 70
          64
  3
Long_Dashed
 72
          65
 73
           2
 40
2.0
 49
1.5
 74
           0
 49
-0.5
 74
           0
  0
LTYPE
  5
21
100
AcDbSymbolTableRecord
100
AcDbLinetypeTableRecord
  2
DASH_CENTER
 70
          64
  3
Dash_Center
 72
          65
 73
           4
 40
36.0
 49
24.0
 74
           0
 49
-3.0
 74
           0
 49
6.0
 74
           0
 49
-3.0
 74
           0
  0
LTYPE
  5
22
100
AcDbSymbolTableRecord
100
AcDbLinetypeTableRecord
  2
PHANTOM
 70
          64
  3
Phantom
 72
          65
 73
           6
 40
2.5
 49
1.25
 74
           0
 49
-0.25
 74
           0
 49
0.25
 74
           0
 49
-0.25
 74
           0
 49
0.25
 74
           0
 49
-0.25
 74
           0
  0
LTYPE
  5
23
100
AcDbSymbolTableRecord
100
AcDbLinetypeTableRecord
  2
CENTER_DASH_DASH
 70
          64
  3
Center_Dash_Dash
 72
          65
 73
           6
 40
22.0
 49
12.0
 74
           0
 49
-3.0
 74
           0
 49
0.5
 74
           0
 49
-3.0
 74
           0
 49
0.5
 74
           0
 49
-3.0
 74
           0
  0
ENDTAB
  0
TABLE
  2
LAYER
  5
2
100
AcDbSymbolTable
 70
           2
  0
LAYER
  5
14
100
AcDbSymbolTableRecord
100
AcDbLayerTableRecord
  2
0
 70
           0
 62
           7
  6
CONTINUOUS
  0
LAYER
  5
24
100
AcDbSymbolTableRecord
100
AcDbLayerTableRecord
  2
1
 70
           0
 62
           7
  6
CONTINUOUS
  0
ENDTAB
  0
TABLE
  2
STYLE
  5
3
100
AcDbSymbolTable
 70
           8
  0
STYLE
  5
17
100
AcDbSymbolTableRecord
100
AcDbTextStyleTableRecord
  2
STANDARD
 70
           0
 40
0.0
 41
1.0
 50
0.0
 71
           0
 42
0.0
  3
txt
  4

  0
STYLE
  5
382
100
AcDbSymbolTableRecord
100
AcDbTextStyleTableRecord
  2
CONVERTER_1
 70
           0
 40
0.0
 41
1.335
 50
0.0
 71
           0
 42
0.0
  3
MS Mincho.ttf
  4

1001
ACAD
1000
MS Mincho
1071
    32785
  0
STYLE
  5
389
100
AcDbSymbolTableRecord
100
AcDbTextStyleTableRecord
  2
CONVERTER_2
 70
           0
 40
0.0
 41
1.35
 50
0.0
 71
           0
 42
0.0
  3
txt.shx
  4

  0
STYLE
  5
4D8
100
AcDbSymbolTableRecord
100
AcDbTextStyleTableRecord
  2
CONVERTER_3
 70
           0
 40
0.0
 41
0.6675
 50
8.0
 71
           0
 42
0.0
  3
MS Mincho.ttf
  4

1001
ACAD
1000
MS Mincho
1071
    32785
  0
STYLE
  5
4E7
100
AcDbSymbolTableRecord
100
AcDbTextStyleTableRecord
  2
CONVERTER_4
 70
           0
 40
0.0
 41
0.89
 50
0.0
 71
           0
 42
0.0
  3
MS Mincho.ttf
  4

1001
ACAD
1000
MS Mincho
1071
    32785
  0
STYLE
  5
4ED
100
AcDbSymbolTableRecord
100
AcDbTextStyleTableRecord
  2
CONVERTER_5
 70
           0
 40
0.0
 41
0.9
 50
0.0
 71
           0
 42
0.0
  3
txt.shx
  4

  0
STYLE
  5
4F9
100
AcDbSymbolTableRecord
100
AcDbTextStyleTableRecord
  2
CONVERTER_6
 70
           0
 40
0.0
 41
1.2
 50
8.0
 71
           0
 42
0.0
  3
txt.shx
  4

  0
STYLE
  5
52B
100
AcDbSymbolTableRecord
100
AcDbTextStyleTableRecord
  2
CONVERTER_7
 70
           0
 40
0.0
 41
1.186666666667
 50
8.0
 71
           0
 42
0.0
  3
MS Mincho.ttf
  4

1001
ACAD
1000
MS Mincho
1071
    32785
  0
ENDTAB
  0
TABLE
  2
VIEW
  5
5
100
AcDbSymbolTable
 70
           0
  0
ENDTAB
  0
TABLE
  2
UCS
  5
6
100
AcDbSymbolTable
 70
           0
  0
ENDTAB
  0
TABLE
  2
APPID
  5
8
100
AcDbSymbolTable
 70
           1
  0
APPID
  5
16
100
AcDbSymbolTableRecord
100
AcDbRegAppTableRecord
  2
ACAD
 70
           0
  0
ENDTAB
  0
TABLE
  2
DIMSTYLE
  5
9
100
AcDbSymbolTable
 70
          23
  0
DIMSTYLE
105
18
100
AcDbSymbolTableRecord
100
AcDbDimStyleTableRecord
  2
STANDARD
 70
           0
  3

  4

  5

  6

  7

 40
1.0
 41
0.18
 42
0.0625
 43
0.38
 44
0.18
 45
0.0
 46
0.0
 47
0.0
 48
0.0
 71
           0
 72
           0
 73
           1
 74
           1
 75
           0
 76
           0
 77
           0
 78
           0
140
0.18
141
0.09
142
0.0
143
25.4
144
1.0
145
0.0
146
1.0
147
0.09
170
           0
171
           2
172
           0
173
           0
174
           0
175
           0
176
           0
177
           0
178
           0
270
           2
271
           4
272
           4
273
           2
274
           2
275
           0
280
           0
281
           0
282
           0
283
           1
284
           0
285
           0
286
           0
287
           0
288
           0
340
17
  0
DIMSTYLE
105
4FE
100
AcDbSymbolTableRecord
100
AcDbDimStyleTableRecord
  2
ME10_DIM_0
 70
           0
  3

  4

  5

  6
_OPEN30
  7
_OPEN30
 40
1.0
 41
3.5
 42
0.7
 43
0.38
 44
2.0
 45
0.0
 46
0.0
 47
0.0
 48
0.0
 71
           0
 72
           0
 73
           0
 74
           0
 75
           0
 76
           0
 77
           1
 78
           8
140
3.5
141
0.09
142
0.0
143
25.4
144
1.0
145
0.0
146
1.0
147
0.625
170
           0
171
           2
172
           0
173
           1
174
           0
175
           0
176
           2
177
           2
178
           3
270
           2
271
           2
272
           4
273
           2
274
           2
275
           0
280
           0
281
           0
282
           0
283
           1
284
           0
285
           0
286
           0
287
           3
288
           0
340
17
  0
DIMSTYLE
105
50F
100
AcDbSymbolTableRecord
100
AcDbDimStyleTableRecord
  2
ME10_DIM_1
 70
           0
  3
(<>)
  4

  5

  6
_OPEN30
  7
_OPEN30
 40
1.0
 41
3.5
 42
0.7
 43
0.38
 44
2.0
 45
0.0
 46
0.0
 47
0.0
 48
0.0
 71
           0
 72
           0
 73
           0
 74
           0
 75
           0
 76
           0
 77
           1
 78
           8
140
3.5
141
0.09
142
0.0
143
25.4
144
1.0
145
0.0
146
1.0
147
0.625
170
           0
171
           2
172
           0
173
           1
174
           0
175
           0
176
           2
177
           2
178
           3
270
           2
271
           2
272
           4
273
           2
274
           2
275
           0
280
           0
281
           0
282
           0
283
           1
284
           0
285
           0
286
           0
287
           3
288
           0
340
17
  0
DIMSTYLE
105
520
100
AcDbSymbolTableRecord
100
AcDbDimStyleTableRecord
  2
ME10_DIM_2
 70
           0
  3

  4

  5

  6
_OPEN30
  7
_OPEN30
 40
1.0
 41
3.5
 42
0.7
 43
0.38
 44
2.0
 45
0.0
 46
0.0
 47
0.5
 48
0.5
 71
           1
 72
           0
 73
           0
 74
           0
 75
           0
 76
           0
 77
           1
 78
           8
140
3.5
141
0.09
142
0.0
143
25.4
144
1.0
145
0.0
146
0.6
147
0.625
170
           0
171
           2
172
           0
173
           1
174
           0
175
           0
176
           2
177
           2
178
           3
270
           2
271
           2
272
           1
273
           2
274
           2
275
           0
280
           0
281
           0
282
           0
283
           1
284
           0
285
           0
286
           0
287
           3
288
           0
340
17
  0
DIMSTYLE
105
530
100
AcDbSymbolTableRecord
100
AcDbDimStyleTableRecord
  2
ME10_DIM_3
 70
           0
  3
(本体幅)
  4

  5

  6
_OPEN30
  7
_OPEN30
 40
1.0
 41
3.5
 42
0.7
 43
0.38
 44
2.0
 45
0.0
 46
0.0
 47
0.0
 48
0.0
 71
           0
 72
           0
 73
           0
 74
           0
 75
           0
 76
           0
 77
           1
 78
           8
140
3.5
141
0.09
142
0.0
143
25.4
144
1.0
145
0.0
146
1.0
147
0.625
170
           0
171
           2
172
           0
173
           1
174
           0
175
           0
176
           2
177
           2
178
           3
270
           2
271
           2
272
           4
273
           2
274
           2
275
           0
280
           0
281
           0
282
           0
283
           1
284
           0
285
           0
286
           0
287
           3
288
           0
340
17
  0
DIMSTYLE
105
541
100
AcDbSymbolTableRecord
100
AcDbDimStyleTableRecord
  2
ME10_DIM_4
 70
           0
  3

  4

  5

  6
_OPEN30
  7
_OPEN30
 40
1.0
 41
3.5
 42
0.7
 43
0.38
 44
2.0
 45
0.0
 46
0.0
 47
0.0
 48
0.0
 71
           0
 72
           0
 73
           0
 74
           0
 75
           0
 76
           0
 77
           1
 78
           8
140
3.5
141
0.09
142
0.0
143
25.4
144
1.0
145
0.0
146
1.0
147
0.625
170
           0
171
           2
172
           0
173
           1
174
           0
175
           0
176
           2
177
           2
178
           3
270
           2
271
           2
272
           4
273
           2
274
           2
275
           0
280
           0
281
           0
282
           0
283
           1
284
           0
285
           0
286
           0
287
           3
288
           0
340
17
  0
DIMSTYLE
105
550
100
AcDbSymbolTableRecord
100
AcDbDimStyleTableRecord
  2
ME10_DIM_5
 70
           0
  3

  4

  5

  6
_OPEN30
  7
_OPEN30
 40
1.0
 41
3.5
 42
0.7
 43
0.38
 44
2.0
 45
0.0
 46
0.0
 47
0.0
 48
0.0
 71
           0
 72
           0
 73
           0
 74
           0
 75
           0
 76
           0
 77
           1
 78
           8
140
3.5
141
0.09
142
0.0
143
25.4
144
1.0
145
0.0
146
1.0
147
0.625
170
           0
171
           2
172
           0
173
           1
174
           0
175
           0
176
           2
177
           2
178
           3
270
           2
271
           2
272
           4
273
           2
274
           2
275
           0
280
           0
281
           0
282
           0
283
           1
284
           0
285
           0
286
           0
287
           3
288
           0
340
17
  0
DIMSTYLE
105
55F
100
AcDbSymbolTableRecord
100
AcDbDimStyleTableRecord
  2
ME10_DIM_6
 70
           0
  3

  4

  5

  6
_OPEN30
  7
_OPEN30
 40
1.0
 41
3.5
 42
0.7
 43
0.38
 44
2.0
 45
0.0
 46
0.0
 47
0.0
 48
0.0
 71
           0
 72
           0
 73
           0
 74
           0
 75
           0
 76
           0
 77
           1
 78
           8
140
3.5
141
0.09
142
0.0
143
25.4
144
1.0
145
0.0
146
1.0
147
0.625
170
           0
171
           2
172
           0
173
           1
174
           0
175
           0
176
           2
177
           2
178
           3
270
           2
271
           2
272
           4
273
           2
274
           2
275
           0
280
           0
281
           0
282
           0
283
           1
284
           0
285
           0
286
           0
287
           3
288
           0
340
17
  0
DIMSTYLE
105
56E
100
AcDbSymbolTableRecord
100
AcDbDimStyleTableRecord
  2
ME10_DIM_7
 70
           0
  3

  4

  5

  6
_OPEN30
  7
_OPEN30
 40
1.0
 41
3.5
 42
0.7
 43
0.38
 44
2.0
 45
0.0
 46
0.0
 47
0.0
 48
0.0
 71
           0
 72
           0
 73
           0
 74
           0
 75
           0
 76
           0
 77
           1
 78
           8
140
3.5
141
0.09
142
0.0
143
25.4
144
1.0
145
0.0
146
1.0
147
0.625
170
           0
171
           2
172
           0
173
           1
174
           0
175
           0
176
           2
177
           2
178
           3
270
           2
271
           2
272
           4
273
           2
274
           2
275
           0
280
           0
281
           0
282
           0
283
           1
284
           0
285
           0
286
           0
287
           3
288
           0
340
17
  0
DIMSTYLE
105
57E
100
AcDbSymbolTableRecord
100
AcDbDimStyleTableRecord
  2
ME10_DIM_8
 70
           0
  3

  4

  5

  6
_OPEN30
  7
_OPEN30
 40
1.0
 41
3.5
 42
0.7
 43
0.38
 44
2.0
 45
0.0
 46
0.0
 47
0.0
 48
0.0
 71
           0
 72
           0
 73
           0
 74
           0
 75
           0
 76
           0
 77
           1
 78
           8
140
3.5
141
0.09
142
0.0
143
25.4
144
1.0
145
0.0
146
1.0
147
0.625
170
           0
171
           2
172
           0
173
           1
174
           0
175
           0
176
           2
177
           2
178
           3
270
           2
271
           2
272
           4
273
           2
274
           2
275
           0
280
           0
281
           0
282
           0
283
           1
284
           0
285
           0
286
           0
287
           3
288
           0
340
17
  0
DIMSTYLE
105
58F
100
AcDbSymbolTableRecord
100
AcDbDimStyleTableRecord
  2
ME10_DIM_9
 70
           0
  3

  4

  5

  6
_OPEN30
  7
_OPEN30
 40
1.0
 41
3.5
 42
0.7
 43
0.38
 44
2.0
 45
0.0
 46
0.0
 47
0.0
 48
0.0
 71
           0
 72
           0
 73
           0
 74
           0
 75
           0
 76
           0
 77
           1
 78
           8
140
3.5
141
0.09
142
0.0
143
25.4
144
1.0
145
0.0
146
1.0
147
0.625
170
           0
171
           2
172
           0
173
           1
174
           0
175
           0
176
           2
177
           2
178
           3
270
           2
271
           2
272
           4
273
           2
274
           2
275
           0
280
           0
281
           0
282
           0
283
           1
284
           0
285
           0
286
           0
287
           3
288
           0
340
17
  0
DIMSTYLE
105
59E
100
AcDbSymbolTableRecord
100
AcDbDimStyleTableRecord
  2
ME10_DIM_10
 70
           0
  3

  4

  5

  6
_OPEN30
  7
_OPEN30
 40
1.0
 41
3.5
 42
0.7
 43
0.38
 44
2.0
 45
0.0
 46
0.0
 47
0.0
 48
0.0
 71
           0
 72
           0
 73
           0
 74
           0
 75
           0
 76
           0
 77
           1
 78
           8
140
3.5
141
0.09
142
0.0
143
25.4
144
1.0
145
0.0
146
1.0
147
0.625
170
           0
171
           2
172
           0
173
           1
174
           0
175
           0
176
           2
177
           2
178
           3
270
           2
271
           2
272
           4
273
           2
274
           2
275
           0
280
           0
281
           0
282
           0
283
           1
284
           0
285
           0
286
           0
287
           3
288
           0
340
17
  0
DIMSTYLE
105
5AD
100
AcDbSymbolTableRecord
100
AcDbDimStyleTableRecord
  2
ME10_DIM_11
 70
           0
  3

  4

  5

  6
_OPEN30
  7
_OPEN30
 40
1.0
 41
3.5
 42
0.7
 43
0.38
 44
2.0
 45
0.0
 46
0.0
 47
0.0
 48
0.0
 71
           0
 72
           0
 73
           0
 74
           0
 75
           0
 76
           0
 77
           1
 78
           8
140
3.5
141
0.09
142
0.0
143
25.4
144
1.0
145
0.0
146
1.0
147
0.625
170
           0
171
           2
172
           0
173
           1
174
           0
175
           0
176
           2
177
           2
178
           3
270
           2
271
           2
272
           4
273
           2
274
           2
275
           0
280
           0
281
           0
282
           0
283
           1
284
           0
285
           0
286
           0
287
           3
288
           0
340
17
  0
DIMSTYLE
105
5BC
100
AcDbSymbolTableRecord
100
AcDbDimStyleTableRecord
  2
ME10_DIM_12
 70
           0
  3

  4

  5

  6
_OPEN30
  7
_OPEN30
 40
1.0
 41
3.5
 42
0.7
 43
0.38
 44
2.0
 45
0.0
 46
0.0
 47
0.0
 48
0.0
 71
           0
 72
           0
 73
           0
 74
           0
 75
           0
 76
           0
 77
           1
 78
           8
140
3.5
141
0.09
142
0.0
143
25.4
144
1.0
145
0.0
146
1.0
147
0.625
170
           0
171
           2
172
           0
173
           1
174
           0
175
           0
176
           2
177
           2
178
           3
270
           2
271
           2
272
           4
273
           2
274
           2
275
           0
280
           0
281
           0
282
           0
283
           1
284
           0
285
           0
286
           0
287
           3
288
           0
340
17
  0
DIMSTYLE
105
5CB
100
AcDbSymbolTableRecord
100
AcDbDimStyleTableRecord
  2
ME10_DIM_13
 70
           0
  3

  4

  5

  6
_OPEN30
  7
_OPEN30
 40
1.0
 41
3.5
 42
0.7
 43
0.38
 44
2.0
 45
0.0
 46
0.0
 47
0.0
 48
0.0
 71
           0
 72
           0
 73
           0
 74
           0
 75
           0
 76
           0
 77
           1
 78
           8
140
3.5
141
0.09
142
0.0
143
25.4
144
1.0
145
0.0
146
1.0
147
0.625
170
           0
171
           2
172
           0
173
           1
174
           0
175
           0
176
           2
177
           2
178
           3
270
           2
271
           2
272
           4
273
           2
274
           2
275
           0
280
           0
281
           0
282
           0
283
           1
284
           0
285
           0
286
           0
287
           3
288
           0
340
17
  0
DIMSTYLE
105
5DC
100
AcDbSymbolTableRecord
100
AcDbDimStyleTableRecord
  2
ME10_DIM_14
 70
           0
  3
(設定寸法)
  4

  5

  6
_OPEN30
  7
_OPEN30
 40
1.0
 41
3.5
 42
0.7
 43
0.38
 44
2.0
 45
0.0
 46
0.0
 47
0.0
 48
0.0
 71
           0
 72
           0
 73
           0
 74
           0
 75
           0
 76
           0
 77
           1
 78
           8
140
3.5
141
0.09
142
0.0
143
25.4
144
1.0
145
0.0
146
1.0
147
0.625
170
           0
171
           2
172
           0
173
           1
174
           0
175
           0
176
           2
177
           2
178
           3
270
           2
271
           2
272
           4
273
           2
274
           2
275
           0
280
           0
281
           0
282
           0
283
           1
284
           0
285
           0
286
           0
287
           3
288
           0
340
17
  0
DIMSTYLE
105
5EB
100
AcDbSymbolTableRecord
100
AcDbDimStyleTableRecord
  2
ME10_DIM_15
 70
           0
  3

  4

  5

  6
_OPEN30
  7
_OPEN30
 40
1.0
 41
3.5
 42
0.7
 43
0.38
 44
2.0
 45
0.0
 46
0.0
 47
0.0
 48
0.0
 71
           0
 72
           0
 73
           0
 74
           0
 75
           0
 76
           0
 77
           1
 78
           8
140
3.5
141
0.09
142
0.0
143
25.4
144
1.0
145
0.0
146
1.0
147
0.625
170
           0
171
           2
172
           0
173
           1
174
           0
175
           0
176
           2
177
           2
178
           3
270
           2
271
           2
272
           4
273
           2
274
           2
275
           0
280
           0
281
           0
282
           0
283
           1
284
           0
285
           0
286
           0
287
           3
288
           0
340
17
  0
DIMSTYLE
105
5FA
100
AcDbSymbolTableRecord
100
AcDbDimStyleTableRecord
  2
ME10_DIM_16
 70
           0
  3

  4

  5

  6
_OPEN30
  7
_OPEN30
 40
1.0
 41
3.5
 42
0.7
 43
0.38
 44
2.0
 45
0.0
 46
0.0
 47
0.0
 48
0.0
 71
           0
 72
           0
 73
           0
 74
           0
 75
           0
 76
           0
 77
           1
 78
           8
140
3.5
141
0.09
142
0.0
143
25.4
144
1.0
145
0.0
146
1.0
147
0.625
170
           0
171
           2
172
           0
173
           1
174
           0
175
           0
176
           2
177
           2
178
           3
270
           2
271
           2
272
           4
273
           2
274
           2
275
           0
280
           0
281
           0
282
           0
283
           1
284
           0
285
           0
286
           0
287
           3
288
           0
340
17
  0
DIMSTYLE
105
609
100
AcDbSymbolTableRecord
100
AcDbDimStyleTableRecord
  2
ME10_DIM_17
 70
           0
  3
(<>)
  4

  5

  6
_OPEN30
  7
_OPEN30
 40
1.0
 41
3.5
 42
0.7
 43
0.38
 44
2.0
 45
0.0
 46
0.0
 47
0.0
 48
0.0
 71
           0
 72
           0
 73
           0
 74
           0
 75
           0
 76
           0
 77
           1
 78
           8
140
3.5
141
0.09
142
0.0
143
25.4
144
1.0
145
0.0
146
1.0
147
0.625
170
           0
171
           2
172
           0
173
           1
174
           0
175
           0
176
           2
177
           2
178
           3
270
           2
271
           2
272
           4
273
           2
274
           2
275
           0
280
           0
281
           0
282
           0
283
           1
284
           0
285
           0
286
           0
287
           3
288
           0
340
17
  0
DIMSTYLE
105
61A
100
AcDbSymbolTableRecord
100
AcDbDimStyleTableRecord
  2
ME10_DIM_18
 70
           0
  3

  4

  5

  6
_OPEN30
  7
_OPEN30
 40
1.0
 41
3.5
 42
0.7
 43
0.38
 44
2.0
 45
0.0
 46
0.0
 47
0.0
 48
0.0
 71
           0
 72
           0
 73
           0
 74
           0
 75
           0
 76
           0
 77
           1
 78
           8
140
3.5
141
0.09
142
0.0
143
25.4
144
1.0
145
0.0
146
1.0
147
0.625
170
           0
171
           2
172
           0
173
           1
174
           0
175
           0
176
           2
177
           2
178
           3
270
           2
271
           2
272
           4
273
           2
274
           2
275
           0
280
           0
281
           0
282
           0
283
           1
284
           0
285
           0
286
           0
287
           3
288
           0
340
17
  0
DIMSTYLE
105
62A
100
AcDbSymbolTableRecord
100
AcDbDimStyleTableRecord
  2
ME10_DIM_19
 70
           0
  3
以上(5mm以下の場合はご相談下さい)
  4

  5

  6
_OPEN30
  7
_OPEN30
 40
1.0
 41
3.5
 42
0.7
 43
0.38
 44
2.0
 45
0.0
 46
0.0
 47
0.0
 48
0.0
 71
           0
 72
           0
 73
           1
 74
           1
 75
           0
 76
           0
 77
           1
 78
           8
140
3.5
141
0.09
142
0.0
143
25.4
144
1.0
145
0.0
146
1.0
147
0.625
170
           0
171
           2
172
           0
173
           1
174
           0
175
           0
176
           2
177
           2
178
           3
270
           2
271
           2
272
           4
273
           2
274
           2
275
           0
280
           0
281
           0
282
           0
283
           1
284
           0
285
           0
286
           0
287
           3
288
           0
340
17
  0
DIMSTYLE
105
63B
100
AcDbSymbolTableRecord
100
AcDbDimStyleTableRecord
  2
ME10_DIM_20
 70
           0
  3
(設定寸法)
  4

  5

  6
_OPEN30
  7
_OPEN30
 40
1.0
 41
3.5
 42
0.7
 43
0.38
 44
2.0
 45
0.0
 46
0.0
 47
0.0
 48
0.0
 71
           0
 72
           0
 73
           0
 74
           0
 75
           0
 76
           0
 77
           1
 78
           8
140
3.5
141
0.09
142
0.0
143
25.4
144
1.0
145
0.0
146
1.0
147
0.625
170
           0
171
           2
172
           0
173
           1
174
           0
175
           0
176
           2
177
           2
178
           3
270
           2
271
           2
272
           4
273
           2
274
           2
275
           0
280
           0
281
           0
282
           0
283
           1
284
           0
285
           0
286
           0
287
           3
288
           0
340
17
  0
DIMSTYLE
105
667
100
AcDbSymbolTableRecord
100
AcDbDimStyleTableRecord
  2
ME10_DIM_21
 70
           0
  3
(<>)
  4

  5

  6
_OPEN30
  7
_OPEN30
 40
1.0
 41
3.5
 42
0.7
 43
0.38
 44
2.0
 45
0.0
 46
0.0
 47
0.0
 48
0.0
 71
           0
 72
           0
 73
           0
 74
           0
 75
           0
 76
           0
 77
           1
 78
           8
140
3.5
141
0.09
142
0.0
143
25.4
144
1.0
145
0.0
146
1.0
147
0.625
170
           0
171
           2
172
           0
173
           1
174
           0
175
           0
176
           2
177
           2
178
           3
270
           2
271
           2
272
           4
273
           2
274
           2
275
           0
280
           0
281
           0
282
           0
283
           1
284
           0
285
           0
286
           0
287
           3
288
           0
340
17
  0
ENDTAB
  0
TABLE
  2
BLOCK_RECORD
  5
1
100
AcDbSymbolTable
 70
         117
  0
BLOCK_RECORD
  5
A
100
AcDbSymbolTableRecord
100
AcDbBlockTableRecord
  2
*MODEL_SPACE
  0
BLOCK_RECORD
  5
B
100
AcDbSymbolTableRecord
100
AcDbBlockTableRecord
  2
*PAPER_SPACE
  0
BLOCK_RECORD
  5
25
100
AcDbSymbolTableRecord
100
AcDbBlockTableRecord
  2
M05__M_D8_MI
  0
BLOCK_RECORD
  5
27
100
AcDbSymbolTableRecord
100
AcDbBlockTableRecord
  2
_S____1
  0
BLOCK_RECORD
  5
29
100
AcDbSymbolTableRecord
100
AcDbBlockTableRecord
  2
_S____2
  0
BLOCK_RECORD
  5
2B
100
AcDbSymbolTableRecord
100
AcDbBlockTableRecord
  2
______3
  0
BLOCK_RECORD
  5
2D
100
AcDbSymbolTableRecord
100
AcDbBlockTableRecord
  2
_X___X__4
  0
BLOCK_RECORD
  5
2F
100
AcDbSymbolTableRecord
100
AcDbBlockTableRecord
  2
M4_TORASU_1
  0
BLOCK_RECORD
  5
31
100
AcDbSymbolTableRecord
100
AcDbBlockTableRecord
  2
_K_C_H
  0
BLOCK_RECORD
  5
33
100
AcDbSymbolTableRecord
100
AcDbBlockTableRecord
  2
M3_M_2_1
  0
BLOCK_RECORD
  5
35
100
AcDbSymbolTableRecord
100
AcDbBlockTableRecord
  2
_A______
  0
BLOCK_RECORD
  5
37
100
AcDbSymbolTableRecord
100
AcDbBlockTableRecord
  2
M3_M_2
  0
BLOCK_RECORD
  5
39
100
AcDbSymbolTableRecord
100
AcDbBlockTableRecord
  2
_X___XASSY
  0
BLOCK_RECORD
  5
41
100
AcDbSymbolTableRecord
100
AcDbBlockTableRecord
  2
__
  0
BLOCK_RECORD
  5
43
100
AcDbSymbolTableRecord
100
AcDbBlockTableRecord
  2
_A____
  0
BLOCK_RECORD
  5
45
100
AcDbSymbolTableRecord
100
AcDbBlockTableRecord
  2
_A____ASSY
  0
BLOCK_RECORD
  5
49
100
AcDbSymbolTableRecord
100
AcDbBlockTableRecord
  2
___O__
  0
BLOCK_RECORD
  5
4B
100
AcDbSymbolTableRecord
100
AcDbBlockTableRecord
  2
______
  0
BLOCK_RECORD
  5
4D
100
AcDbSymbolTableRecord
100
AcDbBlockTableRecord
  2
___O__ASSY
  0
BLOCK_RECORD
  5
51
100
AcDbSymbolTableRecord
100
AcDbBlockTableRecord
  2
_X___C____
  0
BLOCK_RECORD
  5
53
100
AcDbSymbolTableRecord
100
AcDbBlockTableRecord
  2
_X___C____ASSY
  0
BLOCK_RECORD
  5
57
100
AcDbSymbolTableRecord
100
AcDbBlockTableRecord
  2
____ASSY_S_J
  0
BLOCK_RECORD
  5
5C
100
AcDbSymbolTableRecord
100
AcDbBlockTableRecord
  2
_X_G_B_P___S__
  0
BLOCK_RECORD
  5
5E
100
AcDbSymbolTableRecord
100
AcDbBlockTableRecord
  2
_X_G_B_P___S__ASSY
  0
BLOCK_RECORD
  5
61
100
AcDbSymbolTableRecord
100
AcDbBlockTableRecord
  2
A1
  0
BLOCK_RECORD
  5
65
100
AcDbSymbolTableRecord
100
AcDbBlockTableRecord
  2
____1
  0
BLOCK_RECORD
  5
68
100
AcDbSymbolTableRecord
100
AcDbBlockTableRecord
  2
______5
  0
BLOCK_RECORD
  5
6A
100
AcDbSymbolTableRecord
100
AcDbBlockTableRecord
  2
_X_G_B_P____6
  0
BLOCK_RECORD
  5
6C
100
AcDbSymbolTableRecord
100
AcDbBlockTableRecord
  2
_X_G_B_P____7
  0
BLOCK_RECORD
  5
6E
100
AcDbSymbolTableRecord
100
AcDbBlockTableRecord
  2
___B_V____A
  0
BLOCK_RECORD
  5
70
100
AcDbSymbolTableRecord
100
AcDbBlockTableRecord
  2
M04_____MI__8
  0
BLOCK_RECORD
  5
72
100
AcDbSymbolTableRecord
100
AcDbBlockTableRecord
  2
M04_____MI__9
  0
BLOCK_RECORD
  5
74
100
AcDbSymbolTableRecord
100
AcDbBlockTableRecord
  2
_X___X__10
  0
BLOCK_RECORD
  5
79
100
AcDbSymbolTableRecord
100
AcDbBlockTableRecord
  2
X_A______11
  0
BLOCK_RECORD
  5
7B
100
AcDbSymbolTableRecord
100
AcDbBlockTableRecord
  2
A__12
  0
BLOCK_RECORD
  5
7E
100
AcDbSymbolTableRecord
100
AcDbBlockTableRecord
  2
X_A______13
  0
BLOCK_RECORD
  5
80
100
AcDbSymbolTableRecord
100
AcDbBlockTableRecord
  2
M04_____MI__14
  0
BLOCK_RECORD
  5
82
100
AcDbSymbolTableRecord
100
AcDbBlockTableRecord
  2
M04_____MI__15
  0
BLOCK_RECORD
  5
84
100
AcDbSymbolTableRecord
100
AcDbBlockTableRecord
  2
_X___X__16
  0
BLOCK_RECORD
  5
88
100
AcDbSymbolTableRecord
100
AcDbBlockTableRecord
  2
A__17
  0
BLOCK_RECORD
  5
8A
100
AcDbSymbolTableRecord
100
AcDbBlockTableRecord
  2
_S____18
  0
BLOCK_RECORD
  5
8C
100
AcDbSymbolTableRecord
100
AcDbBlockTableRecord
  2
X_A______19
  0
BLOCK_RECORD
  5
8F
100
AcDbSymbolTableRecord
100
AcDbBlockTableRecord
  2
X_A______20
  0
BLOCK_RECORD
  5
91
100
AcDbSymbolTableRecord
100
AcDbBlockTableRecord
  2
_G_E
  0
BLOCK_RECORD
  5
93
100
AcDbSymbolTableRecord
100
AcDbBlockTableRecord
  2
___Q_E
  0
BLOCK_RECORD
  5
95
100
AcDbSymbolTableRecord
100
AcDbBlockTableRecord
  2
_G_E_P_B_L__
  0
BLOCK_RECORD
  5
97
100
AcDbSymbolTableRecord
100
AcDbBlockTableRecord
  2
SKB_A3__S
  0
BLOCK_RECORD
  5
99
100
AcDbSymbolTableRecord
100
AcDbBlockTableRecord
  2
SKB_A3_MI
  0
BLOCK_RECORD
  5
9C
100
AcDbSymbolTableRecord
100
AcDbBlockTableRecord
  2
X_A______21
  0
BLOCK_RECORD
  5
9E
100
AcDbSymbolTableRecord
100
AcDbBlockTableRecord
  2
____
  0
BLOCK_RECORD
  5
4F0
100
AcDbSymbolTableRecord
100
AcDbBlockTableRecord
  2
*D48
  0
BLOCK_RECORD
  5
500
100
AcDbSymbolTableRecord
100
AcDbBlockTableRecord
  2
*D51
  0
BLOCK_RECORD
  5
511
100
AcDbSymbolTableRecord
100
AcDbBlockTableRecord
  2
*D54
  0
BLOCK_RECORD
  5
522
100
AcDbSymbolTableRecord
100
AcDbBlockTableRecord
  2
*D57
  0
BLOCK_RECORD
  5
532
100
AcDbSymbolTableRecord
100
AcDbBlockTableRecord
  2
*D60
  0
BLOCK_RECORD
  5
543
100
AcDbSymbolTableRecord
100
AcDbBlockTableRecord
  2
*D63
  0
BLOCK_RECORD
  5
552
100
AcDbSymbolTableRecord
100
AcDbBlockTableRecord
  2
*D66
  0
BLOCK_RECORD
  5
561
100
AcDbSymbolTableRecord
100
AcDbBlockTableRecord
  2
*D69
  0
BLOCK_RECORD
  5
570
100
AcDbSymbolTableRecord
100
AcDbBlockTableRecord
  2
*D72
  0
BLOCK_RECORD
  5
580
100
AcDbSymbolTableRecord
100
AcDbBlockTableRecord
  2
*D75
  0
BLOCK_RECORD
  5
591
100
AcDbSymbolTableRecord
100
AcDbBlockTableRecord
  2
*D78
  0
BLOCK_RECORD
  5
5A0
100
AcDbSymbolTableRecord
100
AcDbBlockTableRecord
  2
*D81
  0
BLOCK_RECORD
  5
5AF
100
AcDbSymbolTableRecord
100
AcDbBlockTableRecord
  2
*D84
  0
BLOCK_RECORD
  5
5BE
100
AcDbSymbolTableRecord
100
AcDbBlockTableRecord
  2
*D87
  0
BLOCK_RECORD
  5
5CD
100
AcDbSymbolTableRecord
100
AcDbBlockTableRecord
  2
*D90
  0
BLOCK_RECORD
  5
5DE
100
AcDbSymbolTableRecord
100
AcDbBlockTableRecord
  2
*D93
  0
BLOCK_RECORD
  5
5ED
100
AcDbSymbolTableRecord
100
AcDbBlockTableRecord
  2
*D96
  0
BLOCK_RECORD
  5
5FC
100
AcDbSymbolTableRecord
100
AcDbBlockTableRecord
  2
*D99
  0
BLOCK_RECORD
  5
60B
100
AcDbSymbolTableRecord
100
AcDbBlockTableRecord
  2
*D102
  0
BLOCK_RECORD
  5
61C
100
AcDbSymbolTableRecord
100
AcDbBlockTableRecord
  2
*D105
  0
BLOCK_RECORD
  5
62C
100
AcDbSymbolTableRecord
100
AcDbBlockTableRecord
  2
*D108
  0
BLOCK_RECORD
  5
63D
100
AcDbSymbolTableRecord
100
AcDbBlockTableRecord
  2
*D111
  0
BLOCK_RECORD
  5
646
100
AcDbSymbolTableRecord
100
AcDbBlockTableRecord
  2
*D112
  0
BLOCK_RECORD
  5
64F
100
AcDbSymbolTableRecord
100
AcDbBlockTableRecord
  2
*D113
  0
BLOCK_RECORD
  5
658
100
AcDbSymbolTableRecord
100
AcDbBlockTableRecord
  2
*D114
  0
ENDTAB
  0
ENDSEC
  0
SECTION
  2
BLOCKS
  0
BLOCK
  5
D
100
AcDbEntity
  8
0
100
AcDbBlockBegin
  2
*MODEL_SPACE
 70
           0
 10
0.0
 20
0.0
 30
0.0
  3
*MODEL_SPACE
  1

  0
ENDBLK
  5
E
100
AcDbEntity
  8
0
100
AcDbBlockEnd
  0
BLOCK
  5
F
100
AcDbEntity
 67
           1
  8
0
100
AcDbBlockBegin
  2
*PAPER_SPACE
 70
           0
 10
0.0
 20
0.0
 30
0.0
  3
*PAPER_SPACE
  1

  0
ENDBLK
  5
10
100
AcDbEntity
 67
           1
  8
0
100
AcDbBlockEnd
  0
BLOCK
  5
26
100
AcDbEntity
  8
0
100
AcDbBlockBegin
  2
M05__M_D8_MI
 70
           0
 10
0.0
 20
0.0
 30
0.0
  3
M05__M_D8_MI
  1

  0
LINE
  5
C6
100
AcDbEntity
  8
1
  6
DASHED
 62
           6
100
AcDbLine
 10
34.259198628098
 20
-1028.809706191309
 11
34.259198628098
 21
-1020.809706191309
  0
LINE
  5
C5
100
AcDbEntity
  8
1
  6
DASHED
 62
           6
100
AcDbLine
 10
34.259198628098
 20
-1028.809706191309
 11
35.759198628098
 21
-1027.309706191309
  0
LINE
  5
C4
100
AcDbEntity
  8
1
  6
DASHED
 62
           6
100
AcDbLine
 10
35.759198628098
 20
-1027.309706191309
 11
53.359198628098
 21
-1027.309706191309
  0
LINE
  5
C3
100
AcDbEntity
  8
1
  6
DASHED
 62
           6
100
AcDbLine
 10
35.759198628098
 20
-1027.309706191309
 11
35.759198628098
 21
-1022.309706191309
  0
LINE
  5
C2
100
AcDbEntity
  8
1
  6
DASHED
 62
           6
100
AcDbLine
 10
35.759198628098
 20
-1026.809706191309
 11
53.859198628098
 21
-1026.809706191309
  0
LINE
  5
C1
100
AcDbEntity
  8
1
  6
DOT_CENTER
 62
           4
100
AcDbLine
 10
32.359198628098
 20
-1024.809706191309
 11
55.359198628098
 21
-1024.809706191309
  0
LINE
  5
C0
100
AcDbEntity
  8
1
  6
DASHED
 62
           6
100
AcDbLine
 10
35.759198628098
 20
-1022.309706191309
 11
34.259198628098
 21
-1020.809706191309
  0
LINE
  5
BF
100
AcDbEntity
  8
1
  6
DASHED
 62
           6
100
AcDbLine
 10
33.859198628098
 20
-1020.809706191309
 11
34.259198628098
 21
-1020.809706191309
  0
LINE
  5
BE
100
AcDbEntity
  8
1
  6
DASHED
 62
           6
100
AcDbLine
 10
34.259198628098
 20
-1028.809706191309
 11
33.859198628098
 21
-1028.809706191309
  0
LINE
  5
BD
100
AcDbEntity
  8
1
  6
DASHED
 62
           6
100
AcDbLine
 10
53.359198628098
 20
-1027.309706191309
 11
53.859198628098
 21
-1026.809706191309
  0
LINE
  5
BC
100
AcDbEntity
  8
1
  6
DASHED
 62
           6
100
AcDbLine
 10
53.359198628098
 20
-1022.309706191309
 11
53.359198628098
 21
-1027.309706191309
  0
LINE
  5
BB
100
AcDbEntity
  8
1
  6
DASHED
 62
           6
100
AcDbLine
 10
53.359198628098
 20
-1022.309706191309
 11
53.859198628098
 21
-1022.809706191309
  0
LINE
  5
BA
100
AcDbEntity
  8
1
  6
DASHED
 62
           6
100
AcDbLine
 10
53.359198628098
 20
-1022.309706191309
 11
35.759198628098
 21
-1022.309706191309
  0
LINE
  5
B9
100
AcDbEntity
  8
1
  6
DASHED
 62
           6
100
AcDbLine
 10
53.859198628098
 20
-1022.809706191309
 11
53.859198628098
 21
-1026.809706191309
  0
LINE
  5
B8
100
AcDbEntity
  8
1
  6
DASHED
 62
           6
100
AcDbLine
 10
53.859198628098
 20
-1022.809706191309
 11
35.759198628098
 21
-1022.809706191309
  0
LINE
  5
B7
100
AcDbEntity
  8
1
  6
DASHED
 62
           6
100
AcDbLine
 10
33.859198628098
 20
-1028.809706191309
 11
33.859198628098
 21
-1020.809706191309
  0
ENDBLK
  5
C7
100
AcDbEntity
  8
0
100
AcDbBlockEnd
  0
BLOCK
  5
28
100
AcDbEntity
  8
0
100
AcDbBlockBegin
  2
_S____1
 70
           0
 10
0.0
 20
0.0
 30
0.0
  3
_S____1
  1

  0
ARC
  5
D4
100
AcDbEntity
  8
1
  6
CENTER_DASH_DASH
 62
           2
100
AcDbCircle
 10
-260.786776002367
 20
-1134.6035097606
 40
0.3
100
AcDbArc
 50
0.0
 51
90.0
  0
ARC
  5
D3
100
AcDbEntity
  8
1
  6
CENTER_DASH_DASH
 62
           2
100
AcDbCircle
 10
-261.686776002367
 20
-1134.6035097606
 40
0.3
100
AcDbArc
 50
90.0
 51
180.0
  0
ARC
  5
D2
100
AcDbEntity
  8
1
  6
CENTER_DASH_DASH
 62
           2
100
AcDbCircle
 10
-260.786776002367
 20
-1144.8035097606
 40
0.3
100
AcDbArc
 50
-90.0
 51
0.0
  0
ARC
  5
D1
100
AcDbEntity
  8
1
  6
CENTER_DASH_DASH
 62
           2
100
AcDbCircle
 10
-261.686776002367
 20
-1144.8035097606
 40
0.3
100
AcDbArc
 50
180.0
 51
-90.0
  0
LINE
  5
D0
100
AcDbEntity
  8
1
  6
CENTER_DASH_DASH
 62
           2
100
AcDbLine
 10
-261.986776002367
 20
-1144.8035097606
 11
-261.986776002367
 21
-1134.6035097606
  0
LINE
  5
CF
100
AcDbEntity
  8
1
  6
CENTER_DASH_DASH
 62
           2
100
AcDbLine
 10
-260.486776002367
 20
-1144.8035097606
 11
-260.486776002367
 21
-1134.6035097606
  0
LINE
  5
CE
100
AcDbEntity
  8
1
  6
CENTER_DASH_DASH
 62
           2
100
AcDbLine
 10
-260.786776002367
 20
-1134.3035097606
 11
-260.786776002367
 21
-1134.3035097606
  0
LINE
  5
CD
100
AcDbEntity
  8
1
  6
CENTER_DASH_DASH
 62
           2
100
AcDbLine
 10
-261.686776002367
 20
-1134.3035097606
 11
-260.786776002367
 21
-1134.3035097606
  0
LINE
  5
CC
100
AcDbEntity
  8
1
  6
CENTER_DASH_DASH
 62
           2
100
AcDbLine
 10
-260.486776002367
 20
-1136.3035097606
 11
-248.986776002367
 21
-1136.3035097606
  0
LINE
  5
CB
100
AcDbEntity
  8
1
  6
DASH_CENTER
 62
           1
100
AcDbLine
 10
-263.720599026567
 20
-1139.7035097606
 11
-247.210829853317
 21
-1139.7035097606
  0
LINE
  5
CA
100
AcDbEntity
  8
1
  6
CENTER_DASH_DASH
 62
           2
100
AcDbLine
 10
-248.986776002367
 20
-1136.3035097606
 11
-248.986776002367
 21
-1143.1035097606
  0
LINE
  5
C9
100
AcDbEntity
  8
1
  6
CENTER_DASH_DASH
 62
           2
100
AcDbLine
 10
-248.986776002367
 20
-1143.1035097606
 11
-260.486776002367
 21
-1143.1035097606
  0
LINE
  5
C8
100
AcDbEntity
  8
1
  6
CENTER_DASH_DASH
 62
           2
100
AcDbLine
 10
-260.786776002367
 20
-1145.1035097606
 11
-261.686776002367
 21
-1145.1035097606
  0
ENDBLK
  5
D5
100
AcDbEntity
  8
0
100
AcDbBlockEnd
  0
BLOCK
  5
2A
100
AcDbEntity
  8
0
100
AcDbBlockBegin
  2
_S____2
 70
           0
 10
0.0
 20
0.0
 30
0.0
  3
_S____2
  1

  0
ARC
  5
E2
100
AcDbEntity
  8
1
  6
CENTER_DASH_DASH
 62
           2
100
AcDbCircle
 10
-193.886776002365
 20
-1144.8035097606
 40
0.3
100
AcDbArc
 50
180.0
 51
-90.0
  0
ARC
  5
E1
100
AcDbEntity
  8
1
  6
CENTER_DASH_DASH
 62
           2
100
AcDbCircle
 10
-192.986776002365
 20
-1144.8035097606
 40
0.3
100
AcDbArc
 50
-90.0
 51
0.0
  0
ARC
  5
E0
100
AcDbEntity
  8
1
  6
CENTER_DASH_DASH
 62
           2
100
AcDbCircle
 10
-193.886776002365
 20
-1134.6035097606
 40
0.3
100
AcDbArc
 50
90.0
 51
180.0
  0
ARC
  5
DF
100
AcDbEntity
  8
1
  6
CENTER_DASH_DASH
 62
           2
100
AcDbCircle
 10
-192.986776002365
 20
-1134.6035097606
 40
0.3
100
AcDbArc
 50
0.0
 51
90.0
  0
LINE
  5
DE
100
AcDbEntity
  8
1
  6
CENTER_DASH_DASH
 62
           2
100
AcDbLine
 10
-192.986776002365
 20
-1145.1035097606
 11
-193.886776002365
 21
-1145.1035097606
  0
LINE
  5
DD
100
AcDbEntity
  8
1
  6
CENTER_DASH_DASH
 62
           2
100
AcDbLine
 10
-181.186776002365
 20
-1143.1035097606
 11
-192.686776002365
 21
-1143.1035097606
  0
LINE
  5
DC
100
AcDbEntity
  8
1
  6
CENTER_DASH_DASH
 62
           2
100
AcDbLine
 10
-181.186776002365
 20
-1136.3035097606
 11
-181.186776002365
 21
-1143.1035097606
  0
LINE
  5
DB
100
AcDbEntity
  8
1
  6
DASH_CENTER
 62
           1
100
AcDbLine
 10
-195.920599026565
 20
-1139.7035097606
 11
-179.410829853315
 21
-1139.7035097606
  0
LINE
  5
DA
100
AcDbEntity
  8
1
  6
CENTER_DASH_DASH
 62
           2
100
AcDbLine
 10
-192.686776002365
 20
-1136.3035097606
 11
-181.186776002365
 21
-1136.3035097606
  0
LINE
  5
D9
100
AcDbEntity
  8
1
  6
CENTER_DASH_DASH
 62
           2
100
AcDbLine
 10
-193.886776002365
 20
-1134.3035097606
 11
-192.986776002365
 21
-1134.3035097606
  0
LINE
  5
D8
100
AcDbEntity
  8
1
  6
CENTER_DASH_DASH
 62
           2
100
AcDbLine
 10
-192.986776002365
 20
-1134.3035097606
 11
-192.986776002365
 21
-1134.3035097606
  0
LINE
  5
D7
100
AcDbEntity
  8
1
  6
CENTER_DASH_DASH
 62
           2
100
AcDbLine
 10
-192.686776002365
 20
-1144.8035097606
 11
-192.686776002365
 21
-1134.6035097606
  0
LINE
  5
D6
100
AcDbEntity
  8
1
  6
CENTER_DASH_DASH
 62
           2
100
AcDbLine
 10
-194.186776002365
 20
-1144.8035097606
 11
-194.186776002365
 21
-1134.6035097606
  0
ENDBLK
  5
E3
100
AcDbEntity
  8
0
100
AcDbBlockEnd
  0
BLOCK
  5
2C
100
AcDbEntity
  8
0
100
AcDbBlockBegin
  2
______3
 70
           0
 10
0.0
 20
0.0
 30
0.0
  3
______3
  1

  0
LINE
  5
E7
100
AcDbEntity
  8
1
  6
CONTINUOUS
 62
           2
100
AcDbLine
 10
27.709218628097
 20
-1010.209706191311
 11
27.709218628097
 21
-1026.209706191311
  0
LINE
  5
E6
100
AcDbEntity
  8
1
  6
CONTINUOUS
 62
           2
100
AcDbLine
 10
27.709218628097
 20
-1026.209706191311
 11
25.709218628097
 21
-1026.209706191311
  0
LINE
  5
E5
100
AcDbEntity
  8
1
  6
CONTINUOUS
 62
           2
100
AcDbLine
 10
25.709218628097
 20
-1026.209706191311
 11
25.709218628097
 21
-1010.209706191311
  0
LINE
  5
E4
100
AcDbEntity
  8
1
  6
CONTINUOUS
 62
           2
100
AcDbLine
 10
25.709218628097
 20
-1010.209706191311
 11
27.709218628097
 21
-1010.209706191311
  0
ENDBLK
  5
E8
100
AcDbEntity
  8
0
100
AcDbBlockEnd
  0
BLOCK
  5
2E
100
AcDbEntity
  8
0
100
AcDbBlockBegin
  2
_X___X__4
 70
           0
 10
0.0
 20
0.0
 30
0.0
  3
_X___X__4
  1

  0
LINE
  5
126
100
AcDbEntity
  8
0
  6
CONTINUOUS
 62
           4
100
AcDbLine
 10
33.359198628098
 20
-1002.709706192181
 11
34.359198628098
 21
-1002.709706192181
  0
LINE
  5
125
100
AcDbEntity
  8
0
  6
CONTINUOUS
 62
           4
100
AcDbLine
 10
34.359198628098
 20
-1001.209706192181
 11
34.359198628098
 21
-1002.709706192181
  0
LINE
  5
124
100
AcDbEntity
  8
0
  6
CONTINUOUS
 62
           4
100
AcDbLine
 10
34.359198628098
 20
-1035.709706191363
 11
30.859198628098
 21
-1035.709706191363
  0
LINE
  5
123
100
AcDbEntity
  8
0
  6
CONTINUOUS
 62
           4
100
AcDbLine
 10
29.359198628098
 20
-1024.209706191363
 11
29.359198628098
 21
-1037.209706191363
  0
LINE
  5
122
100
AcDbEntity
  8
0
  6
CONTINUOUS
 62
           4
100
AcDbLine
 10
30.859198628098
 20
-1035.159706191363
 11
30.859198628098
 21
-1033.759706191364
  0
LINE
  5
121
100
AcDbEntity
  8
0
  6
CONTINUOUS
 62
           4
100
AcDbLine
 10
30.859198628098
 20
-1035.709706191363
 11
30.859198628098
 21
-1035.159706191363
  0
LINE
  5
120
100
AcDbEntity
  8
0
  6
CONTINUOUS
 62
           4
100
AcDbLine
 10
30.859198628098
 20
-1033.759706191364
 11
30.859198628098
 21
-1027.659706191363
  0
LINE
  5
11F
100
AcDbEntity
  8
0
  6
CONTINUOUS
 62
           4
100
AcDbLine
 10
29.359198628098
 20
-1037.209706191363
 11
33.85782928192
 21
-1037.209706191551
  0
LINE
  5
11E
100
AcDbEntity
  8
0
  6
CONTINUOUS
 62
           4
100
AcDbLine
 10
31.359198628098
 20
-1003.455652138127
 11
31.359198628098
 21
-1003.709706192181
  0
LINE
  5
11D
100
AcDbEntity
  8
0
  6
CONTINUOUS
 62
           4
100
AcDbLine
 10
31.359198628098
 20
-1002.709706192181
 11
31.359198628098
 21
-1003.455652138127
  0
LINE
  5
11C
100
AcDbEntity
  8
0
  6
CONTINUOUS
 62
           4
100
AcDbLine
 10
31.359198628098
 20
-1002.709706192181
 11
33.359198628098
 21
-1002.709706192181
  0
LINE
  5
11B
100
AcDbEntity
  8
0
  6
CONTINUOUS
 62
           4
100
AcDbLine
 10
31.359198628098
 20
-1003.709706192181
 11
31.359198628098
 21
-1009.309706191661
  0
LINE
  5
11A
100
AcDbEntity
  8
0
  6
CONTINUOUS
 62
           4
100
AcDbLine
 10
31.359198628098
 20
-1009.309706191661
 11
31.359198628098
 21
-1013.655781276635
  0
LINE
  5
119
100
AcDbEntity
  8
0
  6
CONTINUOUS
 62
           4
100
AcDbLine
 10
35.559198628099
 20
-1024.209706191363
 11
31.359198628098
 21
-1024.209706191363
  0
LINE
  5
118
100
AcDbEntity
  8
0
  6
CONTINUOUS
 62
           4
100
AcDbLine
 10
34.359198628098
 20
-1001.209706192181
 11
29.359198628098
 21
-1001.209706192181
  0
LINE
  5
117
100
AcDbEntity
  8
0
  6
CONTINUOUS
 62
           4
100
AcDbLine
 10
31.359198628098
 20
-1013.655781276635
 11
31.359198628098
 21
-1015.209706192181
  0
LINE
  5
116
100
AcDbEntity
  8
0
  6
CONTINUOUS
 62
           4
100
AcDbLine
 10
30.859198628098
 20
-1027.659706191363
 11
30.859198628098
 21
-1026.259706191364
  0
LINE
  5
115
100
AcDbEntity
  8
0
  6
CONTINUOUS
 62
           4
100
AcDbLine
 10
30.859198628098
 20
-1025.709706191363
 11
34.359198628098
 21
-1025.709706191363
  0
LINE
  5
114
100
AcDbEntity
  8
0
  6
CONTINUOUS
 62
           4
100
AcDbLine
 10
31.359198628098
 20
-1015.209706192181
 11
31.359198628098
 21
-1015.309706191661
  0
LINE
  5
113
100
AcDbEntity
  8
0
  6
CONTINUOUS
 62
           4
100
AcDbLine
 10
31.359198628098
 20
-1020.209706191311
 11
31.359198628098
 21
-1022.763631105987
  0
LINE
  5
112
100
AcDbEntity
  8
0
  6
CONTINUOUS
 62
           4
100
AcDbLine
 10
31.359198628098
 20
-1022.763631105987
 11
31.359198628098
 21
-1024.209706191363
  0
LINE
  5
111
100
AcDbEntity
  8
0
  6
CONTINUOUS
 62
           4
100
AcDbLine
 10
31.359198628098
 20
-1016.004443034003
 11
31.359198628098
 21
-1016.209706191311
  0
LINE
  5
110
100
AcDbEntity
  8
0
  6
CONTINUOUS
 62
           4
100
AcDbLine
 10
31.359198628098
 20
-1016.209706191311
 11
31.359198628098
 21
-1017.209706191881
  0
LINE
  5
10F
100
AcDbEntity
  8
0
  6
CONTINUOUS
 62
           4
100
AcDbLine
 10
31.359198628098
 20
-1015.309706191661
 11
31.359198628098
 21
-1016.004443034003
  0
LINE
  5
10E
100
AcDbEntity
  8
0
  6
CONTINUOUS
 62
           4
100
AcDbLine
 10
31.359198628098
 20
-1017.209706191881
 11
31.359198628098
 21
-1020.209706191311
  0
LINE
  5
10D
100
AcDbEntity
  8
0
  6
CONTINUOUS
 62
           4
100
AcDbLine
 10
29.359198628098
 20
-1024.209706191363
 11
31.359198628098
 21
-1024.209706191363
  0
LINE
  5
10C
100
AcDbEntity
  8
0
  6
CONTINUOUS
 62
           4
100
AcDbLine
 10
29.359198628098
 20
-1014.192206192181
 11
29.359198628098
 21
-1014.280494920239
  0
LINE
  5
10B
100
AcDbEntity
  8
0
  6
CONTINUOUS
 62
           4
100
AcDbLine
 10
29.359198628098
 20
-1013.939706192181
 11
29.359198628098
 21
-1014.192206192181
  0
LINE
  5
10A
100
AcDbEntity
  8
0
  6
CONTINUOUS
 62
           4
100
AcDbLine
 10
29.359198628098
 20
-1013.709706192181
 11
29.359198628098
 21
-1013.939706192181
  0
LINE
  5
109
100
AcDbEntity
  8
0
  6
CONTINUOUS
 62
           4
100
AcDbLine
 10
29.359198628098
 20
-1014.280494920239
 11
29.359198628098
 21
-1014.599220189413
  0
LINE
  5
108
100
AcDbEntity
  8
0
  6
CONTINUOUS
 62
           4
100
AcDbLine
 10
29.359198628098
 20
-1014.599220189413
 11
29.359198628098
 21
-1016.709706192181
  0
LINE
  5
107
100
AcDbEntity
  8
0
  6
CONTINUOUS
 62
           4
100
AcDbLine
 10
29.359198628098
 20
-1013.479706192181
 11
29.359198628098
 21
-1013.709706192181
  0
LINE
  5
106
100
AcDbEntity
  8
0
  6
CONTINUOUS
 62
           4
100
AcDbLine
 10
29.359198628098
 20
-1013.138917464123
 11
29.359198628098
 21
-1013.227206192181
  0
LINE
  5
105
100
AcDbEntity
  8
0
  6
CONTINUOUS
 62
           4
100
AcDbLine
 10
29.359198628098
 20
-1012.820192194949
 11
29.359198628098
 21
-1013.138917464123
  0
LINE
  5
104
100
AcDbEntity
  8
0
  6
CONTINUOUS
 62
           4
100
AcDbLine
 10
29.359198628098
 20
-1013.227206192181
 11
29.359198628098
 21
-1013.479706192181
  0
LINE
  5
103
100
AcDbEntity
  8
0
  6
CONTINUOUS
 62
           4
100
AcDbLine
 10
29.359198628098
 20
-1006.692206192181
 11
29.359198628098
 21
-1006.780494920239
  0
LINE
  5
102
100
AcDbEntity
  8
0
  6
CONTINUOUS
 62
           4
100
AcDbLine
 10
29.359198628098
 20
-1006.439706192181
 11
29.359198628098
 21
-1006.692206192181
  0
LINE
  5
101
100
AcDbEntity
  8
0
  6
CONTINUOUS
 62
           4
100
AcDbLine
 10
29.359198628098
 20
-1006.209706192181
 11
29.359198628098
 21
-1006.439706192181
  0
LINE
  5
100
100
AcDbEntity
  8
0
  6
CONTINUOUS
 62
           4
100
AcDbLine
 10
29.359198628098
 20
-1006.780494920239
 11
29.359198628098
 21
-1007.099220189413
  0
LINE
  5
FF
100
AcDbEntity
  8
0
  6
CONTINUOUS
 62
           4
100
AcDbLine
 10
29.359198628098
 20
-1005.979706192181
 11
29.359198628098
 21
-1006.209706192181
  0
LINE
  5
FE
100
AcDbEntity
  8
0
  6
CONTINUOUS
 62
           4
100
AcDbLine
 10
29.359198628098
 20
-1005.638917464123
 11
29.359198628098
 21
-1005.727206192181
  0
LINE
  5
FD
100
AcDbEntity
  8
0
  6
CONTINUOUS
 62
           4
100
AcDbLine
 10
29.359198628098
 20
-1005.320192194949
 11
29.359198628098
 21
-1005.638917464123
  0
LINE
  5
FC
100
AcDbEntity
  8
0
  6
CONTINUOUS
 62
           4
100
AcDbLine
 10
29.359198628098
 20
-1005.727206192181
 11
29.359198628098
 21
-1005.979706192181
  0
LINE
  5
FB
100
AcDbEntity
  8
0
  6
CONTINUOUS
 62
           4
100
AcDbLine
 10
29.359198628098
 20
-1009.209706192181
 11
29.359198628098
 21
-1010.709706192181
  0
LINE
  5
FA
100
AcDbEntity
  8
0
  6
CONTINUOUS
 62
           4
100
AcDbLine
 10
29.359198628098
 20
-1010.709706192181
 11
29.359198628098
 21
-1012.820192194949
  0
LINE
  5
F9
100
AcDbEntity
  8
0
  6
CONTINUOUS
 62
           4
100
AcDbLine
 10
29.359198628098
 20
-1003.709706192181
 11
29.359198628098
 21
-1005.320192194949
  0
LINE
  5
F8
100
AcDbEntity
  8
0
  6
CONTINUOUS
 62
           4
100
AcDbLine
 10
29.359198628098
 20
-1003.209706192181
 11
29.359198628098
 21
-1003.709706192181
  0
LINE
  5
F7
100
AcDbEntity
  8
0
  6
CONTINUOUS
 62
           4
100
AcDbLine
 10
29.359198628098
 20
-1001.209706192181
 11
29.359198628098
 21
-1003.209706192181
  0
LINE
  5
F6
100
AcDbEntity
  8
0
  6
CONTINUOUS
 62
           4
100
AcDbLine
 10
29.359198628098
 20
-1007.099220189413
 11
29.359198628098
 21
-1009.209706192181
  0
LINE
  5
F5
100
AcDbEntity
  8
0
  6
CONTINUOUS
 62
           4
100
AcDbLine
 10
29.359198628098
 20
-1016.709706192181
 11
29.359198628098
 21
-1024.209706191363
  0
LINE
  5
F4
100
AcDbEntity
  8
0
  6
CONTINUOUS
 62
           4
100
AcDbLine
 10
30.859198628098
 20
-1026.259706191364
 11
30.859198628098
 21
-1025.709706191363
  0
LINE
  5
F3
100
AcDbEntity
  8
0
  6
CONTINUOUS
 62
           4
100
AcDbLine
 10
34.359198628098
 20
-1033.209706191363
 11
34.359198628098
 21
-1035.709706191363
  0
LINE
  5
F2
100
AcDbEntity
  8
0
  6
CONTINUOUS
 62
           4
100
AcDbLine
 10
34.65782928192
 20
-1037.209706191551
 11
34.800132685309
 21
-1037.209706191551
  0
LINE
  5
F1
100
AcDbEntity
  8
0
  6
CONTINUOUS
 62
           4
100
AcDbLine
 10
33.85782928192
 20
-1037.209706191551
 11
34.65782928192
 21
-1037.209706191551
  0
LINE
  5
F0
100
AcDbEntity
  8
0
  6
CONTINUOUS
 62
           4
100
AcDbLine
 10
34.800132685309
 20
-1037.209706191551
 11
35.559198628099
 21
-1037.209706191363
  0
LINE
  5
EF
100
AcDbEntity
  8
0
  6
CONTINUOUS
 62
           4
100
AcDbLine
 10
35.559198628099
 20
-1037.209706191363
 11
35.559198628099
 21
-1036.709706191363
  0
LINE
  5
EE
100
AcDbEntity
  8
0
  6
CONTINUOUS
 62
           4
100
AcDbLine
 10
35.55919862811
 20
-1034.759706191532
 11
35.559198628099
 21
-1033.209706191363
  0
LINE
  5
ED
100
AcDbEntity
  8
0
  6
CONTINUOUS
 62
           4
100
AcDbLine
 10
35.559198628099
 20
-1036.709706191363
 11
35.55919862811
 21
-1034.759706191532
  0
LINE
  5
EC
100
AcDbEntity
  8
0
  6
CONTINUOUS
 62
           4
100
AcDbLine
 10
35.559198628099
 20
-1033.209706191363
 11
34.359198628098
 21
-1033.209706191363
  0
LINE
  5
EB
100
AcDbEntity
  8
0
  6
CONTINUOUS
 62
           4
100
AcDbLine
 10
34.359198628098
 20
-1028.209706191363
 11
35.559198628099
 21
-1028.209706191363
  0
LINE
  5
EA
100
AcDbEntity
  8
0
  6
CONTINUOUS
 62
           4
100
AcDbLine
 10
34.359198628098
 20
-1025.709706191363
 11
34.359198628098
 21
-1028.209706191363
  0
LINE
  5
E9
100
AcDbEntity
  8
0
  6
CONTINUOUS
 62
           4
100
AcDbLine
 10
35.559198628099
 20
-1028.209706191363
 11
35.559198628099
 21
-1024.209706191363
  0
ENDBLK
  5
127
100
AcDbEntity
  8
0
100
AcDbBlockEnd
  0
BLOCK
  5
30
100
AcDbEntity
  8
0
100
AcDbBlockBegin
  2
M4_TORASU_1
 70
           0
 10
0.0
 20
0.0
 30
0.0
  3
M4_TORASU_1
  1

  0
SPLINE
  5
149
100
AcDbEntity
  8
0
  6
CONTINUOUS
 62
           6
100
AcDbSpline
210
0.0
220
0.0
230
1.0
 70
           0
 71
           4
 72
          11
 73
           7
 74
           9
 42
0.00000000001
 43
0.00000000001
 44
0.00000000001
 40
0.0
 40
0.0
 40
0.0
 40
0.0
 40
0.0258278328931672
 40
0.0394257043643762
 40
0.0529150258554729
 40
0.0827954737258595
 40
0.0827954737258595
 40
0.0827954737258595
 40
0.0827954737258595
 10
33.660841367044192
 20
-1018.9679306761
 30
0.0
 10
33.648876223009182
 20
-1018.963772555381
 30
0.0
 10
33.636366031685128
 20
-1018.959685892128
 30
0.0
 10
33.623374318199211
 20
-1018.955671232834
 30
0.0
 10
33.610486315816132
 20
-1018.951688622024
 30
0.0
 10
33.596639146315262
 20
-1018.947626904049
 30
0.0
 10
33.581752917559207
 20
-1018.943491859614
 30
0.0
 11
33.660841367044192
 21
-1018.9679306761
 31
0.0
 11
33.645401548820701
 21
-1018.9626778482509
 31
0.0
 11
33.633700015845605
 21
-1018.9588883136937
 31
0.0
 11
33.628414040090199
 21
-1018.9572318753695
 31
0.0
 11
33.623479320610087
 21
-1018.9557036803556
 31
0.0
 11
33.618739547243976
 21
-1018.9542416377848
 31
0.0
 11
33.613804150881556
 21
-1018.952734909994
 31
0.0
 11
33.600501597281436
 21
-1018.948797924148
 31
0.0
 11
33.581752917559207
 21
-1018.943491859614
 31
0.0
  0
SPLINE
  5
148
100
AcDbEntity
  8
0
  6
CONTINUOUS
 62
           6
100
AcDbSpline
210
0.0
220
0.0
230
1.0
 70
           0
 71
           4
 72
          17
 73
          13
 74
          21
 42
0.00000000001
 43
0.00000000001
 44
0.00000000001
 40
0.0
 40
0.0
 40
0.0
 40
0.0
 40
0.0282269599162972
 40
0.0549885446706774
 40
0.0991184100879631
 40
0.1672552679609797
 40
0.2539176019955768
 40
0.3423805887381562
 40
0.4510175924652832
 40
0.5708865437730548
 40
0.6467510271361123
 40
0.764415317396177
 40
0.764415317396177
 40
0.764415317396177
 40
0.764415317396177
 10
33.660841367044192
 20
-1017.4514817065231
 30
0.0
 10
33.671995783569152
 20
-1017.447605329413
 30
0.0
 10
33.685082397168323
 20
-1017.437690837742
 30
0.0
 10
33.696546316031323
 20
-1017.413509006073
 30
0.0
 10
33.715450323443257
 20
-1017.373633154665
 30
0.0
 10
33.724650579776117
 20
-1017.306120291563
 30
0.0
 10
33.724650892974267
 20
-1017.219457957529
 30
0.0
 10
33.7246512126803
 20
-1017.130994970787
 30
0.0
 10
33.715064134884159
 20
-1017.022781817621
 30
0.0
 10
33.696545843278237
 20
-1016.904351929655
 30
0.0
 10
33.684825705493239
 20
-1016.829398222567
 30
0.0
 10
33.671579975852147
 20
-1016.76346307095
 30
0.0
 10
33.660841367044192
 20
-1016.714208276627
 30
0.0
 11
33.660841367044192
 21
-1017.4514817065231
 31
0.0
 11
33.674578467647272
 21
-1017.4447937171687
 31
0.0
 11
33.683658639771039
 21
-1017.4365041048487
 31
0.0
 11
33.689721198038825
 21
-1017.4273820670569
 31
0.0
 11
33.694742739041494
 21
-1017.4173134463947
 31
0.0
 11
33.703060577111621
 21
-1017.3992435595687
 31
0.0
 11
33.710629640254844
 21
-1017.3796070017659
 31
0.0
 11
33.71842973435723
 21
-1017.3467591403301
 31
0.0
 11
33.722406768619493
 21
-1017.3119015695764
 31
0.0
 11
33.724370249015045
 21
-1017.2665459731024
 31
0.0
 11
33.724650883758912
 21
-1017.2220078718922
 31
0.0
 11
33.72450092170363
 21
-1017.1787531873972
 31
0.0
 11
33.723450247180885
 21
-1017.1361070134392
 31
0.0
 11
33.719908709479135
 21
-1017.0817195281827
 31
0.0
 11
33.713823661088
 21
-1017.0241528708385
 31
0.0
 11
33.704782675027474
 21
-1016.9581919071471
 31
0.0
 11
33.69558957237431
 21
-1016.8982362976938
 31
0.0
 11
33.690615309388676
 21
-1016.8667850766041
 31
0.0
 11
33.685465599613011
 21
-1016.8363756904891
 31
0.0
 11
33.674993348174688
 21
-1016.7814533598317
 31
0.0
 11
33.660841367044192
 21
-1016.714208276627
 31
0.0
  0
SPLINE
  5
147
100
AcDbEntity
  8
0
  6
CONTINUOUS
 62
           6
100
AcDbSpline
210
0.0
220
0.0
230
1.0
 70
           0
 71
           4
 72
          11
 73
           7
 74
           9
 42
0.00000000001
 43
0.00000000001
 44
0.00000000001
 40
0.0
 40
0.0
 40
0.0
 40
0.0
 40
0.0294083785292221
 40
0.0433863787341095
 40
0.0569783303906225
 40
0.0827954762325665
 40
0.0827954762325665
 40
0.0827954762325665
 40
0.0827954762325665
 10
33.581752917559207
 20
-1017.475920523009
 30
0.0
 10
33.596137244013313
 20
-1017.471924895237
 30
0.0
 10
33.610035337629341
 20
-1017.467863305166
 30
0.0
 10
33.623390182566233
 20
-1017.463736247323
 30
0.0
 10
33.636376189441279
 20
-1017.459723171785
 30
0.0
 10
33.648881069877213
 20
-1017.4556381428609
 30
0.0
 10
33.660841367044192
 20
-1017.4514817065231
 30
0.0
 11
33.581752917559207
 21
-1017.475920523009
 31
0.0
 11
33.600012842234037
 21
-1017.4707564741981
 31
0.0
 11
33.613264924201701
 21
-1017.4668410428112
 31
0.0
 11
33.618525788409066
 21
-1017.4652364671363
 31
0.0
 11
33.623543440360848
 21
-1017.4636888859505
 31
0.0
 11
33.628494115339841
 21
-1017.4621556944808
 31
0.0
 11
33.633749713663754
 21
-1017.4605085885252
 31
0.0
 11
33.645412678026105
 21
-1017.4567309420099
 31
0.0
 11
33.660841367044192
 21
-1017.4514817065231
 31
0.0
  0
SPLINE
  5
146
100
AcDbEntity
  8
0
  6
CONTINUOUS
 62
           6
100
AcDbSpline
210
0.0
220
0.0
230
1.0
 70
           0
 71
           4
 72
          11
 73
           7
 74
           9
 42
0.00000000001
 43
0.00000000001
 44
0.00000000001
 40
0.0
 40
0.0
 40
0.0
 40
0.0
 40
0.1095159834706052
 40
0.1660954929277231
 40
0.2202170368185935
 40
0.3321539574674594
 40
0.3321539574674594
 40
0.3321539574674594
 40
0.3321539574674594
 10
33.660841367044192
 20
-1016.714208276627
 30
0.0
 10
33.649309413115333
 20
-1016.661314644957
 30
0.0
 10
33.636847768339273
 20
-1016.607355087134
 30
0.0
 10
33.623374318200121
 20
-1016.552403226094
 30
0.0
 10
33.610486190853152
 20
-1016.49983862121
 30
0.0
 10
33.59663901139217
 20
-1016.446230452873
 30
0.0
 10
33.581752917559207
 20
-1016.39165497218
 30
0.0
 11
33.660841367044192
 21
-1016.714208276627
 31
0.0
 11
33.645740461177496
 21
-1016.6463697639449
 31
0.0
 11
33.633875807254597
 21
-1016.5955975653891
 31
0.0
 11
33.628461717293398
 21
-1016.5731977958834
 31
0.0
 11
33.623319198434743
 21
-1016.5521784185167
 31
0.0
 11
33.618487199851955
 21
-1016.5325090511403
 31
0.0
 11
33.613383238778248
 21
-1016.5119589590322
 31
0.0
 11
33.600371575329881
 21
-1016.4611756817977
 31
0.0
 11
33.581752917559207
 21
-1016.39165497218
 31
0.0
  0
SPLINE
  5
145
100
AcDbEntity
  8
0
  6
CONTINUOUS
 62
           6
100
AcDbSpline
210
0.0
220
0.0
230
1.0
 70
           0
 71
           4
 72
          11
 73
           7
 74
           9
 42
0.00000000001
 43
0.00000000001
 44
0.00000000001
 40
0.0
 40
0.0
 40
0.0
 40
0.0
 40
0.1100407911780822
 40
0.1661250855104788
 40
0.2226814080615264
 40
0.3321539517121949
 40
0.3321539517121949
 40
0.3321539517121949
 40
0.3321539517121949
 10
33.581752917559207
 20
-1020.027757410443
 30
0.0
 10
33.596137116631297
 20
-1019.975021979141
 30
0.0
 10
33.610035223582123
 20
-1019.921415482092
 30
0.0
 10
33.623390182566233
 20
-1019.866944451798
 30
0.0
 10
33.636857542313209
 20
-1019.812014971171
 30
0.0
 10
33.649313931873138
 20
-1019.758077011472
 30
0.0
 10
33.660841367044192
 20
-1019.705204105997
 30
0.0
 11
33.581752917559207
 21
-1020.027757410443
 31
0.0
 11
33.599877062442559
 21
-1019.9601322650896
 31
0.0
 11
33.612822680883674
 21
-1019.9096952157656
 31
0.0
 11
33.618262765423793
 21
-1019.8878138302966
 31
0.0
 11
33.623380289335969
 21
-1019.8669848034339
 31
0.0
 11
33.628542321665648
 21
-1019.845884933277
 31
0.0
 11
33.633926358672255
 21
-1019.823607005585
 31
0.0
 11
33.645751454758312
 21
-1019.7729958170629
 31
0.0
 11
33.660841367044192
 21
-1019.705204105997
 31
0.0
  0
SPLINE
  5
144
100
AcDbEntity
  8
0
  6
CONTINUOUS
 62
           6
100
AcDbSpline
210
0.0
220
0.0
230
1.0
 70
           0
 71
           4
 72
          20
 73
          16
 74
          27
 42
0.00000000001
 43
0.00000000001
 44
0.00000000001
 40
0.0
 40
0.0
 40
0.0
 40
0.0
 40
0.1176657407074281
 40
0.1935318358102162
 40
0.3133955791695728
 40
0.4220282256706326
 40
0.5104888231572154
 40
0.5543015026374716
 40
0.5933990678129468
 40
0.6267967968845962
 40
0.6533306285410615
 40
0.683095811183957
 40
0.7083562501577164
 40
0.7308152749743542
 40
0.7632627883783811
 40
0.7632627883783811
 40
0.7632627883783811
 40
0.7632627883783811
 10
33.660841367044192
 20
-1019.705204105997
 30
0.0
 10
33.671580020072241
 20
-1019.655949108846
 30
0.0
 10
33.684826006364318
 20
-1019.590012741102
 30
0.0
 10
33.696546316031323
 20
-1019.515057429566
 30
0.0
 10
33.715063681239123
 20
-1019.396632667975
 30
0.0
 10
33.724650573282332
 20
-1019.288423872645
 30
0.0
 10
33.724650892974267
 20
-1019.199963275159
 30
0.0
 10
33.724651051311163
 20
-1019.156150595679
 30
0.0
 10
33.722299670011317
 20
-1019.117123802208
 30
0.0
 10
33.717498772518162
 20
-1019.084072937009
 30
0.0
 10
33.713684554923219
 20
-1019.057814681802
 30
0.0
 10
33.707366890773272
 20
-1019.028727687845
 30
0.0
 10
33.696545843278237
 20
-1019.005902379342
 30
0.0
 10
33.686924863433177
 20
-1018.985608425993
 30
0.0
 10
33.674962122883223
 20
-1018.972837913927
 30
0.0
 10
33.660841367044192
 20
-1018.9679306761
 30
0.0
 11
33.660841367044192
 21
-1019.705204105997
 31
0.0
 11
33.67499346936529
 21
-1019.6379584263644
 31
0.0
 11
33.685465920151998
 21
-1019.5830349354392
 31
0.0
 11
33.69061581577116
 21
-1019.5526243001386
 31
0.0
 11
33.695590240315262
 21
-1019.5211718544554
 31
0.0
 11
33.704782881134882
 21
-1019.4612188996703
 31
0.0
 11
33.713823352289275
 21
-1019.3952615208159
 31
0.0
 11
33.719908174207902
 21
-1019.3372825572333
 31
0.0
 11
33.723449756442491
 21
-1019.279992322035
 31
0.0
 11
33.724500667705641
 21
-1019.2329894234006
 31
0.0
 11
33.724650928376647
 21
-1019.1901672509238
 31
0.0
 11
33.724592483573872
 21
-1019.1717179962889
 31
0.0
 11
33.724182970532084
 21
-1019.1530955740162
 31
0.0
 11
33.723248994515622
 21
-1019.1347104755324
 31
0.0
 11
33.721588494214473
 21
-1019.1152491531623
 31
0.0
 11
33.71955417890215
 21
-1019.0986006542976
 31
0.0
 11
33.717276865674677
 21
-1019.0825452615717
 31
0.0
 11
33.715468562296223
 21
-1019.0703724440646
 31
0.0
 11
33.713385055907757
 21
-1019.0579616617462
 31
0.0
 11
33.710282507067966
 21
-1019.04304333429
 31
0.0
 11
33.706016577765318
 21
-1019.028120314627
 31
0.0
 11
33.701388880120639
 21
-1019.0163981212875
 31
0.0
 11
33.696417265430611
 21
-1019.0056311644677
 31
0.0
 11
33.692080194057638
 21
-1018.9967434457691
 31
0.0
 11
33.687224566590352
 21
-1018.9883258472447
 31
0.0
 11
33.677380892353504
 21
-1018.9769905692955
 31
0.0
 11
33.660841367044192
 21
-1018.9679306761
 31
0.0
  0
ARC
  5
143
100
AcDbEntity
  8
0
  6
CONTINUOUS
 62
           6
100
AcDbCircle
 10
27.405865294765
 20
-1018.123039524645
 40
6.453915263018
100
AcDbArc
 50
16.878798434127
 51
22.71493286927
  0
ARC
  5
142
100
AcDbEntity
  8
0
  6
CONTINUOUS
 62
           6
100
AcDbCircle
 10
27.405865294765
 20
-1018.123039524645
 40
6.453915263018
100
AcDbArc
 50
22.71493286927
 51
25.843283073709
  0
ARC
  5
141
100
AcDbEntity
  8
0
  6
CONTINUOUS
 62
           6
100
AcDbCircle
 10
27.405865294765
 20
-1018.123039524645
 40
6.453915263018
100
AcDbArc
 50
25.843283073709
 51
45.627759168974
  0
ARC
  5
140
100
AcDbEntity
  8
0
  6
CONTINUOUS
 62
           6
100
AcDbCircle
 10
27.405865294765
 20
-1018.296372857978
 40
6.453915263018
100
AcDbArc
 50
-45.627759168968
 51
-16.878798434127
  0
LINE
  5
13F
100
AcDbEntity
  8
1
  6
DOT_CENTER
 62
           6
100
AcDbLine
 10
18.75340083245
 20
-1018.209706191311
 11
37.75340083245
 21
-1018.209706191311
  0
LINE
  5
13E
100
AcDbEntity
  8
0
  6
CONTINUOUS
 62
           6
100
AcDbLine
 10
33.581752917559
 20
-1018.943491859614
 11
33.581752917559
 21
-1017.475920523009
  0
LINE
  5
13D
100
AcDbEntity
  8
0
  6
CONTINUOUS
 62
           6
100
AcDbLine
 10
33.581752917559
 20
-1016.39165497218
 11
33.581752917559
 21
-1016.249157379781
  0
LINE
  5
13C
100
AcDbEntity
  8
0
  6
CONTINUOUS
 62
           6
100
AcDbLine
 10
33.581752917559
 20
-1020.170255002842
 11
33.581752917559
 21
-1020.027757410443
  0
LINE
  5
13B
100
AcDbEntity
  8
0
  6
CONTINUOUS
 62
           6
100
AcDbLine
 10
31.919198628098
 20
-1013.509706191311
 11
31.359198628098
 21
-1013.655781276635
  0
LINE
  5
13A
100
AcDbEntity
  8
0
  6
CONTINUOUS
 62
           6
100
AcDbLine
 10
31.359198628098
 20
-1013.655781276635
 11
31.359198628098
 21
-1015.209706192181
  0
LINE
  5
139
100
AcDbEntity
  8
0
  6
CONTINUOUS
 62
           6
100
AcDbLine
 10
31.919198628098
 20
-1022.909706191311
 11
31.359198628098
 21
-1022.763631105987
  0
LINE
  5
138
100
AcDbEntity
  8
0
  6
CONTINUOUS
 62
           6
100
AcDbLine
 10
31.359198628098
 20
-1015.209706192181
 11
31.359198628098
 21
-1015.309706191661
  0
LINE
  5
137
100
AcDbEntity
  8
0
  6
CONTINUOUS
 62
           6
100
AcDbLine
 10
31.359198628098
 20
-1020.209706191311
 11
31.359198628098
 21
-1022.763631105987
  0
LINE
  5
136
100
AcDbEntity
  8
0
  6
CONTINUOUS
 62
           6
100
AcDbLine
 10
31.359198628098
 20
-1016.004443034003
 11
31.359198628098
 21
-1016.209706191311
  0
LINE
  5
135
100
AcDbEntity
  8
0
  6
CONTINUOUS
 62
           6
100
AcDbLine
 10
31.359198628098
 20
-1016.209706191311
 11
31.359198628098
 21
-1017.209706191881
  0
LINE
  5
134
100
AcDbEntity
  8
0
  6
CONTINUOUS
 62
           6
100
AcDbLine
 10
31.359198628098
 20
-1015.309706191661
 11
31.359198628098
 21
-1016.004443034003
  0
LINE
  5
133
100
AcDbEntity
  8
0
  6
CONTINUOUS
 62
           6
100
AcDbLine
 10
31.359198628098
 20
-1017.209706191881
 11
31.359198628098
 21
-1020.209706191311
  0
LINE
  5
132
100
AcDbEntity
  8
0
  6
CONTINUOUS
 62
           6
100
AcDbLine
 10
21.759198628098
 20
-1020.209706191311
 11
21.359198628098
 21
-1019.809706191311
  0
LINE
  5
131
100
AcDbEntity
  8
0
  6
CONTINUOUS
 62
           6
100
AcDbLine
 10
21.759198628098
 20
-1016.209706191311
 11
21.359198628098
 21
-1016.609706191311
  0
LINE
  5
130
100
AcDbEntity
  8
0
  6
CONTINUOUS
 62
           6
100
AcDbLine
 10
21.359198628098
 20
-1016.609706191311
 11
21.359198628098
 21
-1019.809706191311
  0
LINE
  5
12F
100
AcDbEntity
  8
0
  6
CONTINUOUS
 62
           6
100
AcDbLine
 10
21.759198628098
 20
-1020.209706191311
 11
31.359198628098
 21
-1020.209706191311
  0
LINE
  5
12E
100
AcDbEntity
  8
0
  6
CONTINUOUS
 62
           6
100
AcDbLine
 10
21.759198628098
 20
-1016.209706191311
 11
21.759198628098
 21
-1020.209706191311
  0
LINE
  5
12D
100
AcDbEntity
  8
0
  6
CONTINUOUS
 62
           6
100
AcDbLine
 10
21.759198628098
 20
-1016.209706191311
 11
31.359198628098
 21
-1016.209706191311
  0
LINE
  5
12C
100
AcDbEntity
  8
0
  6
CONTINUOUS
 62
           6
100
AcDbLine
 10
31.359198628098
 20
-1016.209706191311
 11
31.359198628098
 21
-1016.209706191311
  0
LINE
  5
12B
100
AcDbEntity
  8
0
  6
CONTINUOUS
 62
           6
100
AcDbLine
 10
31.359198628098
 20
-1020.209706191311
 11
31.359198628098
 21
-1020.209706191311
  0
LINE
  5
12A
100
AcDbEntity
  8
0
  6
CONTINUOUS
 62
           6
100
AcDbLine
 10
31.919198628098
 20
-1013.509706191311
 11
31.919198628098
 21
-1022.909706191311
  0
LINE
  5
129
100
AcDbEntity
  8
1
  6
CONTINUOUS
 62
           6
100
AcDbLine
 10
21.359198628098
 20
-1016.584706191311
 11
31.359198628098
 21
-1016.584706191311
  0
LINE
  5
128
100
AcDbEntity
  8
1
  6
CONTINUOUS
 62
           6
100
AcDbLine
 10
21.359198628098
 20
-1019.834706191311
 11
31.359198628098
 21
-1019.834706191311
  0
ENDBLK
  5
14A
100
AcDbEntity
  8
0
100
AcDbBlockEnd
  0
BLOCK
  5
32
100
AcDbEntity
  8
0
100
AcDbBlockBegin
  2
_K_C_H
 70
           0
 10
0.0
 20
0.0
 30
0.0
  3
_K_C_H
  1

  0
LINE
  5
15A
100
AcDbEntity
  8
0
  6
CONTINUOUS
 62
           4
100
AcDbLine
 10
33.359198628098
 20
-1007.209706192181
 11
33.359198628098
 21
-1009.309706191661
  0
LINE
  5
159
100
AcDbEntity
  8
0
  6
CONTINUOUS
 62
           4
100
AcDbLine
 10
33.359198628098
 20
-1007.209706192181
 11
33.359198628098
 21
-1005.209706192181
  0
LINE
  5
158
100
AcDbEntity
  8
0
  6
CONTINUOUS
 62
           4
100
AcDbLine
 10
33.359198628098
 20
-1003.455652138127
 11
33.359198628098
 21
-1005.209706192181
  0
LINE
  5
157
100
AcDbEntity
  8
0
  6
CONTINUOUS
 62
           4
100
AcDbLine
 10
33.359198628098
 20
-1003.455652138127
 11
33.359198628098
 21
-1002.709706192181
  0
LINE
  5
156
100
AcDbEntity
  8
0
  6
CONTINUOUS
 62
           4
100
AcDbLine
 10
33.359198628098
 20
-1015.309706191661
 11
33.359198628098
 21
-1015.630882939587
  0
LINE
  5
155
100
AcDbEntity
  8
0
  6
CONTINUOUS
 62
           4
100
AcDbLine
 10
31.359198628098
 20
-1003.455652138127
 11
33.359198628098
 21
-1003.455652138127
  0
LINE
  5
154
100
AcDbEntity
  8
0
  6
CONTINUOUS
 62
           4
100
AcDbLine
 10
31.359198628098
 20
-1003.455652138127
 11
31.359198628098
 21
-1003.709706192181
  0
LINE
  5
153
100
AcDbEntity
  8
0
  6
CONTINUOUS
 62
           4
100
AcDbLine
 10
31.359198628098
 20
-1002.709706192181
 11
31.359198628098
 21
-1003.455652138127
  0
LINE
  5
152
100
AcDbEntity
  8
0
  6
CONTINUOUS
 62
           4
100
AcDbLine
 10
31.359198628098
 20
-1002.709706192181
 11
33.359198628098
 21
-1002.709706192181
  0
LINE
  5
151
100
AcDbEntity
  8
0
  6
CONTINUOUS
 62
           4
100
AcDbLine
 10
31.359198628098
 20
-1003.709706192181
 11
31.359198628098
 21
-1009.309706191661
  0
LINE
  5
150
100
AcDbEntity
  8
0
  6
CONTINUOUS
 62
           4
100
AcDbLine
 10
31.359198628098
 20
-1009.309706191661
 11
31.359198628098
 21
-1013.655781276635
  0
LINE
  5
14F
100
AcDbEntity
  8
0
  6
CONTINUOUS
 62
           4
100
AcDbLine
 10
31.359198628098
 20
-1013.655781276635
 11
31.359198628098
 21
-1015.209706192181
  0
LINE
  5
14E
100
AcDbEntity
  8
0
  6
CONTINUOUS
 62
           4
100
AcDbLine
 10
31.359198628098
 20
-1015.209706192181
 11
31.359198628098
 21
-1015.309706191661
  0
LINE
  5
14D
100
AcDbEntity
  8
0
  6
CONTINUOUS
 62
           4
100
AcDbLine
 10
31.359198628098
 20
-1016.004443034003
 11
31.359198628098
 21
-1016.209706191311
  0
LINE
  5
14C
100
AcDbEntity
  8
0
  6
CONTINUOUS
 62
           4
100
AcDbLine
 10
31.359198628098
 20
-1016.209706191311
 11
31.359198628098
 21
-1017.209706191881
  0
LINE
  5
14B
100
AcDbEntity
  8
0
  6
CONTINUOUS
 62
           4
100
AcDbLine
 10
31.359198628098
 20
-1015.309706191661
 11
31.359198628098
 21
-1016.004443034003
  0
ENDBLK
  5
15B
100
AcDbEntity
  8
0
100
AcDbBlockEnd
  0
BLOCK
  5
34
100
AcDbEntity
  8
0
100
AcDbBlockBegin
  2
M3_M_2_1
 70
           0
 10
0.0
 20
0.0
 30
0.0
  3
M3_M_2_1
  1

  0
LINE
  5
167
100
AcDbEntity
  8
0
  6
CONTINUOUS
 62
           4
100
AcDbLine
 10
33.359198628098
 20
-1007.209706192181
 11
33.359198628098
 21
-1005.209706192181
  0
LINE
  5
166
100
AcDbEntity
  8
0
  6
CONTINUOUS
 62
           4
100
AcDbLine
 10
29.359198628098
 20
-1006.692206192181
 11
29.359198628098
 21
-1006.780494920239
  0
LINE
  5
165
100
AcDbEntity
  8
0
  6
CONTINUOUS
 62
           4
100
AcDbLine
 10
29.359198628098
 20
-1006.439706192181
 11
29.359198628098
 21
-1006.692206192181
  0
LINE
  5
164
100
AcDbEntity
  8
0
  6
CONTINUOUS
 62
           4
100
AcDbLine
 10
29.359198628098
 20
-1006.209706192181
 11
29.359198628098
 21
-1006.439706192181
  0
LINE
  5
163
100
AcDbEntity
  8
0
  6
CONTINUOUS
 62
           4
100
AcDbLine
 10
29.359198628098
 20
-1006.780494920239
 11
29.359198628098
 21
-1007.099220189413
  0
LINE
  5
162
100
AcDbEntity
  8
0
  6
CONTINUOUS
 62
           4
100
AcDbLine
 10
29.359198628098
 20
-1005.979706192181
 11
29.359198628098
 21
-1006.209706192181
  0
LINE
  5
161
100
AcDbEntity
  8
0
  6
CONTINUOUS
 62
           4
100
AcDbLine
 10
29.359198628098
 20
-1005.638917464123
 11
29.359198628098
 21
-1005.727206192181
  0
LINE
  5
160
100
AcDbEntity
  8
0
  6
CONTINUOUS
 62
           4
100
AcDbLine
 10
29.359198628098
 20
-1005.320192194949
 11
29.359198628098
 21
-1005.638917464123
  0
LINE
  5
15F
100
AcDbEntity
  8
0
  6
CONTINUOUS
 62
           4
100
AcDbLine
 10
29.359198628098
 20
-1005.727206192181
 11
29.359198628098
 21
-1005.979706192181
  0
LINE
  5
15E
100
AcDbEntity
  8
0
  6
CONTINUOUS
 62
           4
100
AcDbLine
 10
29.359198628098
 20
-1003.709706192181
 11
29.359198628098
 21
-1005.320192194949
  0
LINE
  5
15D
100
AcDbEntity
  8
0
  6
CONTINUOUS
 62
           4
100
AcDbLine
 10
29.359198628098
 20
-1003.209706192181
 11
29.359198628098
 21
-1003.709706192181
  0
LINE
  5
15C
100
AcDbEntity
  8
0
  6
CONTINUOUS
 62
           4
100
AcDbLine
 10
29.359198628098
 20
-1007.099220189413
 11
29.359198628098
 21
-1009.209706192181
  0
ENDBLK
  5
168
100
AcDbEntity
  8
0
100
AcDbBlockEnd
  0
BLOCK
  5
36
100
AcDbEntity
  8
0
100
AcDbBlockBegin
  2
_A______
 70
           0
 10
0.0
 20
0.0
 30
0.0
  3
_A______
  1

  0
LINE
  5
16A
100
AcDbEntity
  8
0
  6
CONTINUOUS
 62
           4
100
AcDbLine
 10
33.214322730241
 20
-1015.309706191661
 11
34.859198628103
 21
-1015.309706191661
  0
LINE
  5
169
100
AcDbEntity
  8
0
  6
CONTINUOUS
 62
           4
100
AcDbLine
 10
31.359198628098
 20
-1009.309706191661
 11
34.859198628103
 21
-1009.309706191661
  0
ENDBLK
  5
16B
100
AcDbEntity
  8
0
100
AcDbBlockEnd
  0
BLOCK
  5
38
100
AcDbEntity
  8
0
100
AcDbBlockBegin
  2
M3_M_2
 70
           0
 10
0.0
 20
0.0
 30
0.0
  3
M3_M_2
  1

  0
LINE
  5
175
100
AcDbEntity
  8
0
  6
CONTINUOUS
 62
           7
100
AcDbLine
 10
29.359198628098
 20
-1014.192206192181
 11
29.359198628098
 21
-1014.280494920239
  0
LINE
  5
174
100
AcDbEntity
  8
0
  6
CONTINUOUS
 62
           7
100
AcDbLine
 10
29.359198628098
 20
-1013.939706192181
 11
29.359198628098
 21
-1014.192206192181
  0
LINE
  5
173
100
AcDbEntity
  8
0
  6
CONTINUOUS
 62
           7
100
AcDbLine
 10
29.359198628098
 20
-1013.709706192181
 11
29.359198628098
 21
-1013.939706192181
  0
LINE
  5
172
100
AcDbEntity
  8
0
  6
CONTINUOUS
 62
           7
100
AcDbLine
 10
29.359198628098
 20
-1014.280494920239
 11
29.359198628098
 21
-1014.599220189413
  0
LINE
  5
171
100
AcDbEntity
  8
0
  6
CONTINUOUS
 62
           7
100
AcDbLine
 10
29.359198628098
 20
-1014.599220189413
 11
29.359198628098
 21
-1016.709706192181
  0
LINE
  5
170
100
AcDbEntity
  8
0
  6
CONTINUOUS
 62
           7
100
AcDbLine
 10
29.359198628098
 20
-1013.479706192181
 11
29.359198628098
 21
-1013.709706192181
  0
LINE
  5
16F
100
AcDbEntity
  8
0
  6
CONTINUOUS
 62
           7
100
AcDbLine
 10
29.359198628098
 20
-1013.138917464123
 11
29.359198628098
 21
-1013.227206192181
  0
LINE
  5
16E
100
AcDbEntity
  8
0
  6
CONTINUOUS
 62
           7
100
AcDbLine
 10
29.359198628098
 20
-1012.820192194949
 11
29.359198628098
 21
-1013.138917464123
  0
LINE
  5
16D
100
AcDbEntity
  8
0
  6
CONTINUOUS
 62
           7
100
AcDbLine
 10
29.359198628098
 20
-1013.227206192181
 11
29.359198628098
 21
-1013.479706192181
  0
LINE
  5
16C
100
AcDbEntity
  8
0
  6
CONTINUOUS
 62
           7
100
AcDbLine
 10
29.359198628098
 20
-1010.709706192181
 11
29.359198628098
 21
-1012.820192194949
  0
ENDBLK
  5
176
100
AcDbEntity
  8
0
100
AcDbBlockEnd
  0
BLOCK
  5
3A
100
AcDbEntity
  8
0
100
AcDbBlockBegin
  2
_X___XASSY
 70
           0
 10
0.0
 20
0.0
 30
0.0
  3
_X___XASSY
  1

  0
INSERT
  5
3B
100
AcDbEntity
  8
0
100
AcDbBlockReference
  2
_X___X__4
 10
0.0
 20
0.0
  0
INSERT
  5
3C
100
AcDbEntity
  8
0
100
AcDbBlockReference
  2
M4_TORASU_1
 10
0.0
 20
0.0
  0
INSERT
  5
3D
100
AcDbEntity
  8
0
100
AcDbBlockReference
  2
_K_C_H
 10
0.0
 20
0.0
  0
INSERT
  5
3E
100
AcDbEntity
  8
0
100
AcDbBlockReference
  2
M3_M_2_1
 10
0.0
 20
0.0
  0
INSERT
  5
3F
100
AcDbEntity
  8
0
100
AcDbBlockReference
  2
_A______
 10
0.0
 20
0.0
  0
INSERT
  5
40
100
AcDbEntity
  8
0
100
AcDbBlockReference
  2
M3_M_2
 10
0.0
 20
0.0
  0
ENDBLK
  5
177
100
AcDbEntity
  8
0
100
AcDbBlockEnd
  0
BLOCK
  5
42
100
AcDbEntity
  8
0
100
AcDbBlockBegin
  2
__
 70
           0
 10
0.0
 20
0.0
 30
0.0
  3
__
  1

  0
LINE
  5
178
100
AcDbEntity
  8
0
  6
CONTINUOUS
 62
           4
100
AcDbLine
 10
33.359198628098
 20
-1003.809706191801
 11
34.859198628106
 21
-1003.809706191801
  0
ENDBLK
  5
179
100
AcDbEntity
  8
0
100
AcDbBlockEnd
  0
BLOCK
  5
44
100
AcDbEntity
  8
0
100
AcDbBlockBegin
  2
_A____
 70
           0
 10
0.0
 20
0.0
 30
0.0
  3
_A____
  1

  0
LINE
  5
197
100
AcDbEntity
  8
0
  6
CONTINUOUS
 62
           4
100
AcDbLine
 10
34.859198628098
 20
-1001.309706191669
 11
34.859198628106
 21
-1023.509706191365
  0
LINE
  5
196
100
AcDbEntity
  8
0
  6
CONTINUOUS
 62
           4
100
AcDbLine
 10
34.686575495318
 20
-1001.309706191861
 11
34.686575495321
 21
-1003.809706191801
  0
LINE
  5
195
100
AcDbEntity
  8
0
  6
CONTINUOUS
 62
           4
100
AcDbLine
 10
34.359198628098
 20
-1001.309706191863
 11
34.686575495318
 21
-1001.309706191861
  0
LINE
  5
194
100
AcDbEntity
  8
0
  6
CONTINUOUS
 62
           4
100
AcDbLine
 10
34.686575495318
 20
-1001.309706191861
 11
34.859198628098
 21
-1001.309706191669
  0
LINE
  5
193
100
AcDbEntity
  8
0
  6
CONTINUOUS
 62
           4
100
AcDbLine
 10
34.859198628098
 20
-1001.309706191669
 11
36.359198628098
 21
-1001.309706191669
  0
LINE
  5
192
100
AcDbEntity
  8
0
  6
CONTINUOUS
 62
           4
100
AcDbLine
 10
36.359198628098
 20
-1001.309706191669
 11
36.859198628099
 21
-1001.30970619191
  0
LINE
  5
191
100
AcDbEntity
  8
0
  6
CONTINUOUS
 62
           4
100
AcDbLine
 10
36.359198628098
 20
-1001.309706191669
 11
36.359198628106
 21
-1004.559706191801
  0
LINE
  5
190
100
AcDbEntity
  8
0
  6
CONTINUOUS
 62
           4
100
AcDbLine
 10
36.35919862811
 20
-1009.7662576586
 11
36.359198628098
 21
-1009.259706191657
  0
LINE
  5
18F
100
AcDbEntity
  8
0
  6
CONTINUOUS
 62
           4
100
AcDbLine
 10
36.35919862811
 20
-1012.056192351463
 11
36.35919862811
 21
-1011.7662576586
  0
LINE
  5
18E
100
AcDbEntity
  8
0
  6
CONTINUOUS
 62
           4
100
AcDbLine
 10
36.35919862811
 20
-1011.7662576586
 11
36.35919862811
 21
-1011.056192351463
  0
LINE
  5
18D
100
AcDbEntity
  8
0
  6
CONTINUOUS
 62
           4
100
AcDbLine
 10
36.35919862811
 20
-1012.460327235048
 11
36.35919862811
 21
-1012.056192351463
  0
LINE
  5
18C
100
AcDbEntity
  8
0
  6
CONTINUOUS
 62
           4
100
AcDbLine
 10
36.359198628098
 20
-1015.35970619165
 11
36.35919862811
 21
-1014.556192351463
  0
LINE
  5
18B
100
AcDbEntity
  8
0
  6
CONTINUOUS
 62
           4
100
AcDbLine
 10
36.35919862811
 20
-1015.556192351463
 11
36.35919862811
 21
-1015.508783466101
  0
LINE
  5
18A
100
AcDbEntity
  8
0
  6
CONTINUOUS
 62
           4
100
AcDbLine
 10
36.35919862811
 20
-1015.508783466101
 11
36.359198628098
 21
-1015.35970619165
  0
LINE
  5
189
100
AcDbEntity
  8
0
  6
CONTINUOUS
 62
           4
100
AcDbLine
 10
36.359198628098
 20
-1009.259706191657
 11
36.359198628106
 21
-1008.059706191801
  0
LINE
  5
188
100
AcDbEntity
  8
0
  6
CONTINUOUS
 62
           4
100
AcDbLine
 10
36.359198628106
 20
-1008.059706191801
 11
36.359198628098
 21
-1006.309706191661
  0
LINE
  5
187
100
AcDbEntity
  8
0
  6
CONTINUOUS
 62
           4
100
AcDbLine
 10
36.35919862811
 20
-1013.565687143793
 11
36.35919862811
 21
-1012.460327235048
  0
LINE
  5
186
100
AcDbEntity
  8
0
  6
CONTINUOUS
 62
           4
100
AcDbLine
 10
36.35919862811
 20
-1014.556192351463
 11
36.35919862811
 21
-1013.565687143793
  0
LINE
  5
185
100
AcDbEntity
  8
0
  6
CONTINUOUS
 62
           4
100
AcDbLine
 10
36.35919862811
 20
-1011.056192351463
 11
36.35919862811
 21
-1009.7662576586
  0
LINE
  5
184
100
AcDbEntity
  8
0
  6
CONTINUOUS
 62
           4
100
AcDbLine
 10
36.359198628098
 20
-1018.309706191661
 11
36.35919862811
 21
-1015.556192351463
  0
LINE
  5
183
100
AcDbEntity
  8
0
  6
CONTINUOUS
 62
           4
100
AcDbLine
 10
36.359198628098
 20
-1018.309706191661
 11
36.35919862811
 21
-1018.352730121503
  0
LINE
  5
182
100
AcDbEntity
  8
0
  6
CONTINUOUS
 62
           4
100
AcDbLine
 10
36.359198628106
 20
-1004.559706191801
 11
36.359198628098
 21
-1006.309706191661
  0
LINE
  5
181
100
AcDbEntity
  8
0
  6
CONTINUOUS
 62
           4
100
AcDbLine
 10
36.359198628098
 20
-1023.309706191313
 11
34.859198628098
 21
-1023.309706191313
  0
LINE
  5
180
100
AcDbEntity
  8
0
  6
CONTINUOUS
 62
           4
100
AcDbLine
 10
36.359198628098
 20
-1023.509706191364
 11
36.359198628098
 21
-1023.309706191313
  0
LINE
  5
17F
100
AcDbEntity
  8
0
  6
CONTINUOUS
 62
           4
100
AcDbLine
 10
36.35919862811
 20
-1018.352730121503
 11
36.359198628098
 21
-1023.309706191313
  0
LINE
  5
17E
100
AcDbEntity
  8
0
  6
CONTINUOUS
 62
           4
100
AcDbLine
 10
37.359198628099
 20
-1037.209706191364
 11
35.559198628099
 21
-1037.209706191359
  0
LINE
  5
17D
100
AcDbEntity
  8
0
  6
CONTINUOUS
 62
           4
100
AcDbLine
 10
37.3591986281
 20
-1037.109706191522
 11
37.359198628099
 21
-1037.209706191364
  0
LINE
  5
17C
100
AcDbEntity
  8
0
  6
CONTINUOUS
 62
           4
100
AcDbLine
 10
37.359198628099
 20
-1036.709706191363
 11
37.3591986281
 21
-1037.109706191522
  0
LINE
  5
17B
100
AcDbEntity
  8
0
  6
CONTINUOUS
 62
           4
100
AcDbLine
 10
38.859198628136
 20
-1037.209706191364
 11
37.359198628099
 21
-1037.209706191364
  0
LINE
  5
17A
100
AcDbEntity
  8
0
  6
CONTINUOUS
 62
           4
100
AcDbLine
 10
38.859198628099
 20
-1036.709706191363
 11
38.859198628136
 21
-1037.209706191364
  0
ENDBLK
  5
198
100
AcDbEntity
  8
0
100
AcDbBlockEnd
  0
BLOCK
  5
46
100
AcDbEntity
  8
0
100
AcDbBlockBegin
  2
_A____ASSY
 70
           0
 10
0.0
 20
0.0
 30
0.0
  3
_A____ASSY
  1

  0
INSERT
  5
47
100
AcDbEntity
  8
0
100
AcDbBlockReference
  2
__
 10
0.0
 20
0.0
  0
INSERT
  5
48
100
AcDbEntity
  8
0
100
AcDbBlockReference
  2
_A____
 10
0.0
 20
0.0
  0
ENDBLK
  5
199
100
AcDbEntity
  8
0
100
AcDbBlockEnd
  0
BLOCK
  5
4A
100
AcDbEntity
  8
0
100
AcDbBlockBegin
  2
___O__
 70
           0
 10
0.0
 20
0.0
 30
0.0
  3
___O__
  1

  0
LINE
  5
19B
100
AcDbEntity
  8
0
  6
CONTINUOUS
 62
           7
100
AcDbLine
 10
38.859198628099
 20
-1035.109706191374
 11
55.359198628094
 21
-1035.109706191374
  0
LINE
  5
19A
100
AcDbEntity
  8
0
  6
CONTINUOUS
 62
           7
100
AcDbLine
 10
38.859198628099
 20
-1034.509706191374
 11
55.359198628094
 21
-1034.509706191374
  0
ENDBLK
  5
19C
100
AcDbEntity
  8
0
100
AcDbBlockEnd
  0
BLOCK
  5
4C
100
AcDbEntity
  8
0
100
AcDbBlockBegin
  2
______
 70
           0
 10
0.0
 20
0.0
 30
0.0
  3
______
  1

  0
ARC
  5
1AB
100
AcDbEntity
  8
1
  6
CONTINUOUS
 62
           7
100
AcDbCircle
 10
55.859198628095
 20
-1047.609706191362
 40
0.5
100
AcDbArc
 50
180.0
 51
-90.0
  0
ARC
  5
1AA
100
AcDbEntity
  8
1
  6
CONTINUOUS
 62
           7
100
AcDbCircle
 10
55.859198628095
 20
-1046.60970619136
 40
0.5
100
AcDbArc
 50
180.0
 51
-90.0
  0
ARC
  5
1A9
100
AcDbEntity
  8
1
  6
CONTINUOUS
 62
           7
100
AcDbCircle
 10
70.859198628093
 20
-1034.609706191356
 40
0.5
100
AcDbArc
 50
0.0
 51
90.0
  0
ARC
  5
1A8
100
AcDbEntity
  8
1
  6
CONTINUOUS
 62
           7
100
AcDbCircle
 10
69.859198628094
 20
-1034.609706191356
 40
0.5
100
AcDbArc
 50
0.0
 51
90.000000000104
  0
ARC
  5
1A7
100
AcDbEntity
  8
0
  6
CONTINUOUS
 62
           7
100
AcDbCircle
 10
66.359198628094
 20
-1043.109706191358
 40
4.000000000001
100
AcDbArc
 50
-89.999999999984
 51
-52.841649151225
  0
ARC
  5
1A6
100
AcDbEntity
  8
0
  6
CONTINUOUS
 62
           7
100
AcDbCircle
 10
66.359198628094
 20
-1043.109706191358
 40
4.000000000001
100
AcDbArc
 50
-52.841649151225
 51
-41.409622109264
  0
ARC
  5
1A5
100
AcDbEntity
  8
0
  6
CONTINUOUS
 62
           7
100
AcDbCircle
 10
66.359198628094
 20
-1043.109706191358
 40
4.000000000001
100
AcDbArc
 50
-41.409622109264
 51
0.0
  0
ARC
  5
1A4
100
AcDbEntity
  8
0
  6
CONTINUOUS
 62
           7
100
AcDbCircle
 10
66.359198628094
 20
-1043.109706191361
 40
5.0
100
AcDbArc
 50
-89.999999999987
 51
0.0
  0
LINE
  5
1A3
100
AcDbEntity
  8
0
  6
CONTINUOUS
 62
           7
100
AcDbLine
 10
55.359198628094
 20
-1034.10970619136
 11
55.359198628094
 21
-1034.509706191374
  0
LINE
  5
1A2
100
AcDbEntity
  8
0
  6
CONTINUOUS
 62
           7
100
AcDbLine
 10
55.359198628094
 20
-1034.509706191374
 11
55.359198628095
 21
-1047.609706191362
  0
LINE
  5
1A1
100
AcDbEntity
  8
0
  6
CONTINUOUS
 62
           7
100
AcDbLine
 10
55.359198628094
 20
-1034.10970619136
 11
70.859198628093
 21
-1034.109706191356
  0
LINE
  5
1A0
100
AcDbEntity
  8
0
  6
CONTINUOUS
 62
           7
100
AcDbLine
 10
66.359198628095
 20
-1048.109706191361
 11
55.859198628095
 21
-1048.109706191362
  0
LINE
  5
19F
100
AcDbEntity
  8
0
  6
CONTINUOUS
 62
           7
100
AcDbLine
 10
66.359198628095
 20
-1047.109706191359
 11
55.859198628095
 21
-1047.10970619136
  0
LINE
  5
19E
100
AcDbEntity
  8
0
  6
CONTINUOUS
 62
           7
100
AcDbLine
 10
70.359198628094
 20
-1034.609706191356
 11
70.359198628094
 21
-1043.109706191358
  0
LINE
  5
19D
100
AcDbEntity
  8
0
  6
CONTINUOUS
 62
           7
100
AcDbLine
 10
71.359198628093
 20
-1034.609706191356
 11
71.359198628094
 21
-1043.109706191361
  0
ENDBLK
  5
1AC
100
AcDbEntity
  8
0
100
AcDbBlockEnd
  0
BLOCK
  5
4E
100
AcDbEntity
  8
0
100
AcDbBlockBegin
  2
___O__ASSY
 70
           0
 10
0.0
 20
0.0
 30
0.0
  3
___O__ASSY
  1

  0
INSERT
  5
4F
100
AcDbEntity
  8
0
100
AcDbBlockReference
  2
___O__
 10
0.0
 20
0.0
  0
INSERT
  5
50
100
AcDbEntity
  8
0
100
AcDbBlockReference
  2
______
 10
0.0
 20
0.0
  0
ENDBLK
  5
1AD
100
AcDbEntity
  8
0
100
AcDbBlockEnd
  0
BLOCK
  5
52
100
AcDbEntity
  8
0
100
AcDbBlockBegin
  2
_X___C____
 70
           0
 10
0.0
 20
0.0
 30
0.0
  3
_X___C____
  1

  0
ARC
  5
1CD
100
AcDbEntity
  8
0
  6
CONTINUOUS
 62
           4
100
AcDbCircle
 10
31.359198628098
 20
-1035.159706191363
 40
0.5
100
AcDbArc
 50
180.0
 51
-90.0
  0
ARC
  5
1CC
100
AcDbEntity
  8
0
  6
CONTINUOUS
 62
           4
100
AcDbCircle
 10
33.759198628098
 20
-1026.259706191364
 40
0.5
100
AcDbArc
 50
0.0
 51
90.0
  0
ARC
  5
1CB
100
AcDbEntity
  8
0
  6
CONTINUOUS
 62
           4
100
AcDbCircle
 10
31.359198628098
 20
-1026.259706191364
 40
0.5
100
AcDbArc
 50
90.0
 51
180.0
  0
ARC
  5
1CA
100
AcDbEntity
  8
0
  6
CONTINUOUS
 62
           4
100
AcDbCircle
 10
36.359198628099
 20
-1023.609706191363
 40
0.5
100
AcDbArc
 50
-90.0
 51
0.0
  0
ARC
  5
1C9
100
AcDbEntity
  8
0
  6
CONTINUOUS
 62
           4
100
AcDbCircle
 10
33.759198628098
 20
-1035.159706191363
 40
0.5
100
AcDbArc
 50
-90.0
 51
0.0
  0
LINE
  5
1C8
100
AcDbEntity
  8
0
  6
CONTINUOUS
 62
           4
100
AcDbLine
 10
38.859198628099
 20
-1001.309706191913
 11
38.859198628135
 21
-1036.709706191363
  0
LINE
  5
1C7
100
AcDbEntity
  8
0
  6
CONTINUOUS
 62
           4
100
AcDbLine
 10
38.859198628099
 20
-1001.309706191913
 11
38.859198628099
 21
-1001.209706191363
  0
LINE
  5
1C6
100
AcDbEntity
  8
0
  6
CONTINUOUS
 62
           4
100
AcDbLine
 10
36.859198628099
 20
-1023.609706191363
 11
36.859198628099
 21
-1001.209706191363
  0
LINE
  5
1C5
100
AcDbEntity
  8
0
  6
CONTINUOUS
 62
           4
100
AcDbLine
 10
38.859198628099
 20
-1001.209706191363
 11
36.859198628099
 21
-1001.209706191363
  0
LINE
  5
1C4
100
AcDbEntity
  8
0
  6
CONTINUOUS
 62
           4
100
AcDbLine
 10
32.6591986281
 20
-1032.209706191363
 11
32.659198628098
 21
-1033.759706191364
  0
LINE
  5
1C3
100
AcDbEntity
  8
0
  6
CONTINUOUS
 62
           4
100
AcDbLine
 10
32.659198628098
 20
-1033.759706191364
 11
30.859198628098
 21
-1033.759706191364
  0
LINE
  5
1C2
100
AcDbEntity
  8
0
  6
CONTINUOUS
 62
           4
100
AcDbLine
 10
31.359198628098
 20
-1035.659706191363
 11
33.759198628098
 21
-1035.659706191363
  0
LINE
  5
1C1
100
AcDbEntity
  8
0
  6
CONTINUOUS
 62
           4
100
AcDbLine
 10
32.6591986281
 20
-1029.209706191363
 11
32.6591986281
 21
-1032.209706191363
  0
LINE
  5
1C0
100
AcDbEntity
  8
0
  6
CONTINUOUS
 62
           4
100
AcDbLine
 10
30.859198628098
 20
-1035.159706191363
 11
30.859198628098
 21
-1033.759706191364
  0
LINE
  5
1BF
100
AcDbEntity
  8
0
  6
CONTINUOUS
 62
           4
100
AcDbLine
 10
30.859198628098
 20
-1027.659706191363
 11
32.659198628098
 21
-1027.659706191363
  0
LINE
  5
1BE
100
AcDbEntity
  8
0
  6
CONTINUOUS
 62
           4
100
AcDbLine
 10
30.859198628098
 20
-1027.659706191363
 11
30.859198628098
 21
-1026.259706191364
  0
LINE
  5
1BD
100
AcDbEntity
  8
0
  6
CONTINUOUS
 62
           4
100
AcDbLine
 10
33.759198628098
 20
-1025.759706191364
 11
31.359198628098
 21
-1025.759706191364
  0
LINE
  5
1BC
100
AcDbEntity
  8
0
  6
CONTINUOUS
 62
           4
100
AcDbLine
 10
35.559198628099
 20
-1024.109706191363
 11
35.559198628099
 21
-1024.209706191363
  0
LINE
  5
1BB
100
AcDbEntity
  8
0
  6
CONTINUOUS
 62
           4
100
AcDbLine
 10
35.559198628099
 20
-1024.109706191363
 11
36.359198628099
 21
-1024.109706191363
  0
LINE
  5
1BA
100
AcDbEntity
  8
0
  6
CONTINUOUS
 62
           4
100
AcDbLine
 10
34.259198628098
 20
-1035.159706191363
 11
34.259198628098
 21
-1033.109706191363
  0
LINE
  5
1B9
100
AcDbEntity
  8
0
  6
CONTINUOUS
 62
           4
100
AcDbLine
 10
35.559198628099
 20
-1036.709706191363
 11
36.859198628099
 21
-1036.709706191363
  0
LINE
  5
1B8
100
AcDbEntity
  8
0
  6
CONTINUOUS
 62
           4
100
AcDbLine
 10
35.55919862811
 20
-1034.759706191532
 11
35.559198628099
 21
-1033.209706191363
  0
LINE
  5
1B7
100
AcDbEntity
  8
0
  6
CONTINUOUS
 62
           4
100
AcDbLine
 10
35.559198628099
 20
-1036.709706191363
 11
35.55919862811
 21
-1034.759706191532
  0
LINE
  5
1B6
100
AcDbEntity
  8
0
  6
CONTINUOUS
 62
           4
100
AcDbLine
 10
36.859198628099
 20
-1036.709706191363
 11
36.859198628099
 21
-1023.609706191363
  0
LINE
  5
1B5
100
AcDbEntity
  8
0
  6
CONTINUOUS
 62
           4
100
AcDbLine
 10
32.659198628098
 20
-1027.659706191363
 11
32.6591986281
 21
-1029.209706191363
  0
LINE
  5
1B4
100
AcDbEntity
  8
0
  6
CONTINUOUS
 62
           4
100
AcDbLine
 10
36.859198628099
 20
-1036.709706191363
 11
38.859198628135
 21
-1036.709706191363
  0
LINE
  5
1B3
100
AcDbEntity
  8
0
  6
CONTINUOUS
 62
           4
100
AcDbLine
 10
34.259198628098
 20
-1033.109706191363
 11
35.559198628099
 21
-1033.109706191363
  0
LINE
  5
1B2
100
AcDbEntity
  8
0
  6
CONTINUOUS
 62
           4
100
AcDbLine
 10
35.559198628099
 20
-1033.109706191363
 11
35.559198628099
 21
-1033.209706191363
  0
LINE
  5
1B1
100
AcDbEntity
  8
0
  6
CONTINUOUS
 62
           4
100
AcDbLine
 10
35.559198628099
 20
-1028.309706191364
 11
34.259198628098
 21
-1028.309706191364
  0
LINE
  5
1B0
100
AcDbEntity
  8
0
  6
CONTINUOUS
 62
           4
100
AcDbLine
 10
34.259198628098
 20
-1028.309706191364
 11
34.259198628098
 21
-1026.259706191364
  0
LINE
  5
1AF
100
AcDbEntity
  8
0
  6
CONTINUOUS
 62
           4
100
AcDbLine
 10
35.559198628099
 20
-1028.209706191363
 11
35.559198628099
 21
-1028.309706191364
  0
LINE
  5
1AE
100
AcDbEntity
  8
0
  6
CONTINUOUS
 62
           4
100
AcDbLine
 10
35.559198628099
 20
-1028.209706191363
 11
35.559198628099
 21
-1024.209706191363
  0
ENDBLK
  5
1CE
100
AcDbEntity
  8
0
100
AcDbBlockEnd
  0
BLOCK
  5
54
100
AcDbEntity
  8
0
100
AcDbBlockBegin
  2
_X___C____ASSY
 70
           0
 10
0.0
 20
0.0
 30
0.0
  3
_X___C____ASSY
  1

  0
INSERT
  5
55
100
AcDbEntity
  8
0
100
AcDbBlockReference
  2
___O__ASSY
 10
0.0
 20
0.0
  0
INSERT
  5
56
100
AcDbEntity
  8
0
100
AcDbBlockReference
  2
_X___C____
 10
0.0
 20
0.0
  0
ENDBLK
  5
1CF
100
AcDbEntity
  8
0
100
AcDbBlockEnd
  0
BLOCK
  5
58
100
AcDbEntity
  8
0
100
AcDbBlockBegin
  2
____ASSY_S_J
 70
           0
 10
0.0
 20
0.0
 30
0.0
  3
____ASSY_S_J
  1

  0
INSERT
  5
59
100
AcDbEntity
  8
0
100
AcDbBlockReference
  2
_X___XASSY
 10
0.0
 20
0.0
  0
INSERT
  5
5A
100
AcDbEntity
  8
0
100
AcDbBlockReference
  2
_A____ASSY
 10
0.0
 20
0.0
  0
INSERT
  5
5B
100
AcDbEntity
  8
0
100
AcDbBlockReference
  2
_X___C____ASSY
 10
0.0
 20
0.0
  0
ENDBLK
  5
1D0
100
AcDbEntity
  8
0
100
AcDbBlockEnd
  0
BLOCK
  5
5D
100
AcDbEntity
  8
0
100
AcDbBlockBegin
  2
_X_G_B_P___S__
 70
           0
 10
0.0
 20
0.0
 30
0.0
  3
_X_G_B_P___S__
  1

  0
ARC
  5
1DB
100
AcDbEntity
  8
1
  6
CONTINUOUS
 62
           2
100
AcDbCircle
 10
35.059198628098
 20
-1029.909706191309
 40
0.3
100
AcDbArc
 50
-90.0
 51
0.0
  0
ARC
  5
1DA
100
AcDbEntity
  8
1
  6
CONTINUOUS
 62
           2
100
AcDbCircle
 10
34.159198628098
 20
-1029.909706191309
 40
0.3
100
AcDbArc
 50
180.0
 51
-90.0
  0
ARC
  5
1D9
100
AcDbEntity
  8
1
  6
CONTINUOUS
 62
           2
100
AcDbCircle
 10
34.159198628098
 20
-1019.709706191308
 40
0.299999999999
100
AcDbArc
 50
90.0
 51
180.0
  0
ARC
  5
1D8
100
AcDbEntity
  8
1
  6
CONTINUOUS
 62
           2
100
AcDbCircle
 10
35.059198628098
 20
-1019.709706191308
 40
0.3
100
AcDbArc
 50
0.0
 51
90.0
  0
LINE
  5
1D7
100
AcDbEntity
  8
1
  6
DOT_CENTER
 62
           1
100
AcDbLine
 10
32.819468806773
 20
-1024.809706191309
 11
55.769208806774
 21
-1024.809706191309
  0
LINE
  5
1D6
100
AcDbEntity
  8
0
  6
CONTINUOUS
 62
           2
100
AcDbLine
 10
46.859198628098
 20
-1021.409706191309
 11
35.359198628098
 21
-1021.409706191309
  0
LINE
  5
1D5
100
AcDbEntity
  8
0
  6
CONTINUOUS
 62
           2
100
AcDbLine
 10
46.859198628098
 20
-1028.209706191308
 11
35.359198628098
 21
-1028.209706191308
  0
LINE
  5
1D4
100
AcDbEntity
  8
1
  6
CONTINUOUS
 62
           2
100
AcDbLine
 10
34.159198628098
 20
-1019.409706191309
 11
35.059198628098
 21
-1019.409706191309
  0
LINE
  5
1D3
100
AcDbEntity
  8
1
  6
CONTINUOUS
 62
           2
100
AcDbLine
 10
33.859198628098
 20
-1029.909706191309
 11
33.859198628098
 21
-1019.709706191308
  0
LINE
  5
1D2
100
AcDbEntity
  8
1
  6
CONTINUOUS
 62
           2
100
AcDbLine
 10
35.059198628098
 20
-1030.209706191309
 11
34.159198628098
 21
-1030.209706191309
  0
LINE
  5
1D1
100
AcDbEntity
  8
1
  6
CONTINUOUS
 62
           2
100
AcDbLine
 10
35.359198628098
 20
-1019.709706191308
 11
35.359198628098
 21
-1029.909706191309
  0
ENDBLK
  5
1DC
100
AcDbEntity
  8
0
100
AcDbBlockEnd
  0
BLOCK
  5
5F
100
AcDbEntity
  8
0
100
AcDbBlockBegin
  2
_X_G_B_P___S__ASSY
 70
           0
 10
0.0
 20
0.0
 30
0.0
  3
_X_G_B_P___S__ASSY
  1

  0
INSERT
  5
60
100
AcDbEntity
  8
0
100
AcDbBlockReference
  2
_X_G_B_P___S__
 10
0.0
 20
0.0
  0
ENDBLK
  5
1DD
100
AcDbEntity
  8
0
100
AcDbBlockEnd
  0
BLOCK
  5
62
100
AcDbEntity
  8
0
100
AcDbBlockBegin
  2
A1
 70
           0
 10
0.0
 20
0.0
 30
0.0
  3
A1
  1

  0
INSERT
  5
63
100
AcDbEntity
  8
0
100
AcDbBlockReference
  2
____ASSY_S_J
 10
0.0
 20
0.0
  0
INSERT
  5
64
100
AcDbEntity
  8
0
100
AcDbBlockReference
  2
_X_G_B_P___S__ASSY
 10
0.0
 20
0.0
  0
ENDBLK
  5
1DE
100
AcDbEntity
  8
0
100
AcDbBlockEnd
  0
BLOCK
  5
66
100
AcDbEntity
  8
0
100
AcDbBlockBegin
  2
____1
 70
           0
 10
0.0
 20
0.0
 30
0.0
  3
____1
  1

  0
LINE
  5
1E3
100
AcDbEntity
  8
1
  6
CONTINUOUS
 62
           7
100
AcDbLine
 10
29.359198628098
 20
-1001.209706191363
 11
38.859198628099
 21
-1001.209706191363
  0
LINE
  5
1E2
100
AcDbEntity
  8
1
  6
CONTINUOUS
 62
           7
100
AcDbLine
 10
29.359198628098
 20
-1036.709706191363
 11
29.359198628098
 21
-1001.209706191363
  0
LINE
  5
1E1
100
AcDbEntity
  8
1
  6
CONTINUOUS
 62
           7
100
AcDbLine
 10
38.859198628099
 20
-1036.709706191363
 11
29.359198628098
 21
-1036.709706191363
  0
LINE
  5
1E0
100
AcDbEntity
  8
1
  6
CONTINUOUS
 62
           7
100
AcDbLine
 10
38.859198628099
 20
-1001.209706191363
 11
38.859198628099
 21
-1036.709706191363
  0
LINE
  5
1DF
100
AcDbEntity
  8
1
  6
CONTINUOUS
 62
           2
100
AcDbLine
 10
31.359198628098
 20
-1001.209706191363
 11
31.359198628098
 21
-1036.709706191363
  0
INSERT
  5
67
100
AcDbEntity
  8
0
100
AcDbBlockReference
  2
A1
 10
0.0
 20
0.0
  0
ENDBLK
  5
1E4
100
AcDbEntity
  8
0
100
AcDbBlockEnd
  0
BLOCK
  5
69
100
AcDbEntity
  8
0
100
AcDbBlockBegin
  2
______5
 70
           0
 10
0.0
 20
0.0
 30
0.0
  3
______5
  1

  0
LINE
  5
1E8
100
AcDbEntity
  8
1
  6
CONTINUOUS
 62
           2
100
AcDbLine
 10
48.809198628099
 20
-1018.409706191309
 11
50.809198628099
 21
-1018.409706191309
  0
LINE
  5
1E7
100
AcDbEntity
  8
1
  6
CONTINUOUS
 62
           2
100
AcDbLine
 10
48.809198628099
 20
-1031.20970619131
 11
48.809198628099
 21
-1018.409706191309
  0
LINE
  5
1E6
100
AcDbEntity
  8
1
  6
CONTINUOUS
 62
           2
100
AcDbLine
 10
50.809198628099
 20
-1031.20970619131
 11
48.809198628099
 21
-1031.20970619131
  0
LINE
  5
1E5
100
AcDbEntity
  8
1
  6
CONTINUOUS
 62
           2
100
AcDbLine
 10
50.809198628099
 20
-1018.409706191309
 11
50.809198628099
 21
-1031.20970619131
  0
ENDBLK
  5
1E9
100
AcDbEntity
  8
0
100
AcDbBlockEnd
  0
BLOCK
  5
6B
100
AcDbEntity
  8
0
100
AcDbBlockBegin
  2
_X_G_B_P____6
 70
           0
 10
0.0
 20
0.0
 30
0.0
  3
_X_G_B_P____6
  1

  0
ARC
  5
201
100
AcDbEntity
  8
1
  6
CONTINUOUS
 62
           7
100
AcDbCircle
 10
-259.342256459326
 20
-1214.273697986532
 40
1.000000000001
100
AcDbArc
 50
-173.732510451524
 51
-128.732510451548
  0
ARC
  5
200
100
AcDbEntity
  8
1
  6
CONTINUOUS
 62
           7
100
AcDbCircle
 10
-260.564963882906
 20
-1203.140639711452
 40
1.000000000001
100
AcDbArc
 50
141.267489548519
 51
-173.732510451574
  0
ARC
  5
1FF
100
AcDbEntity
  8
1
  6
CONTINUOUS
 62
           7
100
AcDbCircle
 10
-259.186776002372
 20
-1193.7035097606
 40
1.0
100
AcDbArc
 50
-90.0
 51
0.0
  0
ARC
  5
1FE
100
AcDbEntity
  8
1
  6
CONTINUOUS
 62
           7
100
AcDbCircle
 10
-259.686776002372
 20
-1182.7535097606
 40
0.3
100
AcDbArc
 50
90.0
 51
180.0
  0
ARC
  5
1FD
100
AcDbEntity
  8
1
  6
CONTINUOUS
 62
           7
100
AcDbCircle
 10
-259.686776002372
 20
-1186.6535097606
 40
0.299999999999
100
AcDbArc
 50
180.0
 51
-90.0
  0
ARC
  5
1FC
100
AcDbEntity
  8
1
  6
CONTINUOUS
 62
           7
100
AcDbCircle
 10
-260.686776002372
 20
-1194.7035097606
 40
1.0
100
AcDbArc
 50
90.0
 51
-168.667254484512
  0
LINE
  5
1FB
100
AcDbEntity
  8
1
  6
CONTINUOUS
 62
           7
100
AcDbLine
 10
-259.186776002372
 20
-1179.7035097606
 11
-259.186776002372
 21
-1193.7035097606
  0
LINE
  5
1FA
100
AcDbEntity
  8
1
  6
CONTINUOUS
 62
           7
100
AcDbLine
 10
-259.186776002372
 20
-1193.7035097606
 11
-260.686776002372
 21
-1193.7035097606
  0
LINE
  5
1F9
100
AcDbEntity
  8
1
  6
CONTINUOUS
 62
           7
100
AcDbLine
 10
-259.186776002372
 20
-1179.7035097606
 11
-258.186776002372
 21
-1179.7035097606
  0
LINE
  5
1F8
100
AcDbEntity
  8
1
  6
CONTINUOUS
 62
           7
100
AcDbLine
 10
-258.186776002372
 20
-1179.7035097606
 11
-258.186776002372
 21
-1193.7035097606
  0
LINE
  5
1F7
100
AcDbEntity
  8
1
  6
CONTINUOUS
 62
           7
100
AcDbLine
 10
-259.186776002372
 20
-1194.7035097606
 11
-260.686776002372
 21
-1194.7035097606
  0
LINE
  5
1F6
100
AcDbEntity
  8
1
  6
CONTINUOUS
 62
           7
100
AcDbLine
 10
-261.680799062647
 20
-1194.812680066277
 11
-259.180799062648
 21
-1217.575808146573
  0
LINE
  5
1F5
100
AcDbEntity
  8
1
  6
CONTINUOUS
 62
           7
100
AcDbLine
 10
-259.180799062648
 20
-1217.575808146573
 11
-258.186776002374
 21
-1217.466637840897
  0
LINE
  5
1F4
100
AcDbEntity
  8
1
  6
CONTINUOUS
 62
           7
100
AcDbLine
 10
-258.186776002374
 20
-1217.466637840897
 11
-258.414481945345
 21
-1215.393318023088
  0
LINE
  5
1F3
100
AcDbEntity
  8
1
  6
CONTINUOUS
 62
           7
100
AcDbLine
 10
-260.896324560723
 20
-1201.95551749149
 11
-261.345039392932
 21
-1202.514954328324
  0
LINE
  5
1F2
100
AcDbEntity
  8
1
  6
CONTINUOUS
 62
           7
100
AcDbLine
 10
-261.558986943182
 20
-1203.249810017128
 11
-260.336279519602
 21
-1214.382868292209
  0
LINE
  5
1F1
100
AcDbEntity
  8
1
  6
CONTINUOUS
 62
           7
100
AcDbLine
 10
-259.967941842454
 20
-1215.053773496556
 11
-259.408505005621
 21
-1215.502488328764
  0
LINE
  5
1F0
100
AcDbEntity
  8
1
  6
CONTINUOUS
 62
           7
100
AcDbLine
 10
-259.902301500449
 20
-1201.846347185813
 11
-260.686776002372
 21
-1194.7035097606
  0
LINE
  5
1EF
100
AcDbEntity
  8
1
  6
CONTINUOUS
 62
           7
100
AcDbLine
 10
-258.414481945345
 20
-1215.393318023088
 11
-259.902301500449
 21
-1201.846347185813
  0
LINE
  5
1EE
100
AcDbEntity
  8
1
  6
DOT_CENTER
 62
           4
100
AcDbLine
 10
-261.941656291667
 20
-1208.925509460345
 11
-258.164368662622
 21
-1208.510662298773
  0
LINE
  5
1ED
100
AcDbEntity
  8
1
  6
DASH_CENTER
 62
           4
100
AcDbLine
 10
-260.925971081931
 20
-1184.7035097606
 11
-255.628593429031
 21
-1184.7035097606
  0
LINE
  5
1EC
100
AcDbEntity
  8
1
  6
CONTINUOUS
 62
           7
100
AcDbLine
 10
-259.686776002372
 20
-1182.4535097606
 11
-259.186776002372
 21
-1182.4535097606
  0
LINE
  5
1EB
100
AcDbEntity
  8
1
  6
CONTINUOUS
 62
           7
100
AcDbLine
 10
-259.186776002372
 20
-1186.9535097606
 11
-259.686776002372
 21
-1186.9535097606
  0
LINE
  5
1EA
100
AcDbEntity
  8
1
  6
CONTINUOUS
 62
           7
100
AcDbLine
 10
-259.986776002371
 20
-1186.6535097606
 11
-259.986776002371
 21
-1182.7535097606
  0
ENDBLK
  5
202
100
AcDbEntity
  8
0
100
AcDbBlockEnd
  0
BLOCK
  5
6D
100
AcDbEntity
  8
0
100
AcDbBlockBegin
  2
_X_G_B_P____7
 70
           0
 10
0.0
 20
0.0
 30
0.0
  3
_X_G_B_P____7
  1

  0
ARC
  5
219
100
AcDbEntity
  8
1
  6
CONTINUOUS
 62
           7
100
AcDbCircle
 10
-191.88677600237
 20
-1171.6535097606
 40
0.299999999999
100
AcDbArc
 50
180.0
 51
-90.0
  0
ARC
  5
218
100
AcDbEntity
  8
1
  6
CONTINUOUS
 62
           7
100
AcDbCircle
 10
-191.88677600237
 20
-1167.7535097606
 40
0.3
100
AcDbArc
 50
90.0
 51
180.0
  0
ARC
  5
217
100
AcDbEntity
  8
1
  6
CONTINUOUS
 62
           7
100
AcDbCircle
 10
-191.38677600237
 20
-1178.7035097606
 40
1.0
100
AcDbArc
 50
-90.0
 51
0.0
  0
ARC
  5
216
100
AcDbEntity
  8
1
  6
CONTINUOUS
 62
           7
100
AcDbCircle
 10
-192.764963882904
 20
-1188.140639711452
 40
1.000000000001
100
AcDbArc
 50
141.267489548525
 51
-173.732510451575
  0
ARC
  5
215
100
AcDbEntity
  8
1
  6
CONTINUOUS
 62
           7
100
AcDbCircle
 10
-191.542256459324
 20
-1199.273697986532
 40
1.000000000001
100
AcDbArc
 50
-173.732510451523
 51
-128.73251045156
  0
ARC
  5
214
100
AcDbEntity
  8
1
  6
CONTINUOUS
 62
           7
100
AcDbCircle
 10
-192.88677600237
 20
-1179.7035097606
 40
1.0
100
AcDbArc
 50
90.0
 51
-168.667254484515
  0
LINE
  5
213
100
AcDbEntity
  8
1
  6
CONTINUOUS
 62
           7
100
AcDbLine
 10
-192.186776002369
 20
-1171.6535097606
 11
-192.186776002369
 21
-1167.7535097606
  0
LINE
  5
212
100
AcDbEntity
  8
1
  6
CONTINUOUS
 62
           7
100
AcDbLine
 10
-191.38677600237
 20
-1171.9535097606
 11
-191.88677600237
 21
-1171.9535097606
  0
LINE
  5
211
100
AcDbEntity
  8
1
  6
CONTINUOUS
 62
           7
100
AcDbLine
 10
-191.88677600237
 20
-1167.4535097606
 11
-191.38677600237
 21
-1167.4535097606
  0
LINE
  5
210
100
AcDbEntity
  8
1
  6
DOT_CENTER
 62
           4
100
AcDbLine
 10
-194.141656291665
 20
-1193.925509460345
 11
-190.36436866262
 21
-1193.510662298773
  0
LINE
  5
20F
100
AcDbEntity
  8
1
  6
CONTINUOUS
 62
           7
100
AcDbLine
 10
-190.614481945343
 20
-1200.393318023088
 11
-192.102301500447
 21
-1186.846347185813
  0
LINE
  5
20E
100
AcDbEntity
  8
1
  6
CONTINUOUS
 62
           7
100
AcDbLine
 10
-192.102301500447
 20
-1186.846347185813
 11
-192.88677600237
 21
-1179.7035097606
  0
LINE
  5
20D
100
AcDbEntity
  8
1
  6
CONTINUOUS
 62
           7
100
AcDbLine
 10
-192.167941842452
 20
-1200.053773496556
 11
-191.608505005619
 21
-1200.502488328764
  0
LINE
  5
20C
100
AcDbEntity
  8
1
  6
CONTINUOUS
 62
           7
100
AcDbLine
 10
-193.75898694318
 20
-1188.249810017128
 11
-192.5362795196
 21
-1199.382868292209
  0
LINE
  5
20B
100
AcDbEntity
  8
1
  6
CONTINUOUS
 62
           7
100
AcDbLine
 10
-193.096324560721
 20
-1186.95551749149
 11
-193.54503939293
 21
-1187.514954328324
  0
LINE
  5
20A
100
AcDbEntity
  8
1
  6
CONTINUOUS
 62
           7
100
AcDbLine
 10
-190.386776002372
 20
-1202.466637840897
 11
-190.614481945343
 21
-1200.393318023088
  0
LINE
  5
209
100
AcDbEntity
  8
1
  6
CONTINUOUS
 62
           7
100
AcDbLine
 10
-191.380799062646
 20
-1202.575808146573
 11
-190.386776002372
 21
-1202.466637840897
  0
LINE
  5
208
100
AcDbEntity
  8
1
  6
CONTINUOUS
 62
           7
100
AcDbLine
 10
-193.880799062645
 20
-1179.812680066277
 11
-191.380799062646
 21
-1202.575808146573
  0
LINE
  5
207
100
AcDbEntity
  8
1
  6
CONTINUOUS
 62
           7
100
AcDbLine
 10
-191.38677600237
 20
-1179.7035097606
 11
-192.88677600237
 21
-1179.7035097606
  0
LINE
  5
206
100
AcDbEntity
  8
1
  6
CONTINUOUS
 62
           7
100
AcDbLine
 10
-190.38677600237
 20
-1164.7035097606
 11
-190.38677600237
 21
-1178.7035097606
  0
LINE
  5
205
100
AcDbEntity
  8
1
  6
CONTINUOUS
 62
           7
100
AcDbLine
 10
-191.38677600237
 20
-1164.7035097606
 11
-190.38677600237
 21
-1164.7035097606
  0
LINE
  5
204
100
AcDbEntity
  8
1
  6
CONTINUOUS
 62
           7
100
AcDbLine
 10
-191.38677600237
 20
-1178.7035097606
 11
-192.88677600237
 21
-1178.7035097606
  0
LINE
  5
203
100
AcDbEntity
  8
1
  6
CONTINUOUS
 62
           7
100
AcDbLine
 10
-191.38677600237
 20
-1164.7035097606
 11
-191.38677600237
 21
-1178.7035097606
  0
ENDBLK
  5
21A
100
AcDbEntity
  8
0
100
AcDbBlockEnd
  0
BLOCK
  5
6F
100
AcDbEntity
  8
0
100
AcDbBlockBegin
  2
___B_V____A
 70
           0
 10
0.0
 20
0.0
 30
0.0
  3
___B_V____A
  1

  0
LINE
  5
21B
100
AcDbEntity
  8
1
  6
DASH_CENTER
 62
           4
100
AcDbLine
 10
-1464.931918018091
 20
-383.77445447139
 11
-1472.931918018091
 21
-383.77445447139
  0
ENDBLK
  5
21C
100
AcDbEntity
  8
0
100
AcDbBlockEnd
  0
BLOCK
  5
71
100
AcDbEntity
  8
0
100
AcDbBlockBegin
  2
M04_____MI__8
 70
           0
 10
0.0
 20
0.0
 30
0.0
  3
M04_____MI__8
  1

  0
ARC
  5
22F
100
AcDbEntity
  8
1
  6
CENTER_DASH_DASH
 62
           2
100
AcDbCircle
 10
-268.440109335701
 20
-1030.616843093933
 40
6.453915263019
100
AcDbArc
 50
-0.769421858322
 51
45.627759168974
  0
ARC
  5
22E
100
AcDbEntity
  8
1
  6
CENTER_DASH_DASH
 62
           2
100
AcDbCircle
 10
-268.440109335701
 20
-1030.790176427266
 40
6.453915263018
100
AcDbArc
 50
-45.627759168967
 51
0.769421858332
  0
LINE
  5
22D
100
AcDbEntity
  8
1
  6
DOT_CENTER
 62
           1
100
AcDbLine
 10
-259.816697337114
 20
-1030.7035097606
 11
-272.085272005039
 21
-1030.703509760599
  0
LINE
  5
22C
100
AcDbEntity
  8
1
  6
CENTER_DASH_DASH
 62
           2
100
AcDbLine
 10
-270.086776002367
 20
-1028.703509760599
 11
-264.486776002367
 21
-1028.703509760599
  0
LINE
  5
22B
100
AcDbEntity
  8
1
  6
CENTER_DASH_DASH
 62
           2
100
AcDbLine
 10
-264.486776002367
 20
-1032.703509760599
 11
-270.086776002368
 21
-1032.703509760599
  0
LINE
  5
22A
100
AcDbEntity
  8
1
  6
CENTER_DASH_DASH
 62
           2
100
AcDbLine
 10
-270.486776002367
 20
-1029.103509760599
 11
-264.486776002367
 21
-1029.103509760599
  0
LINE
  5
229
100
AcDbEntity
  8
1
  6
CENTER_DASH_DASH
 62
           2
100
AcDbLine
 10
-264.486776002367
 20
-1032.303509760599
 11
-270.486776002367
 21
-1032.303509760599
  0
LINE
  5
228
100
AcDbEntity
  8
1
  6
CENTER_DASH_DASH
 62
           2
100
AcDbLine
 10
-270.486776002367
 20
-1032.303509760599
 11
-270.486776002367
 21
-1029.103509760599
  0
LINE
  5
227
100
AcDbEntity
  8
1
  6
CENTER_DASH_DASH
 62
           2
100
AcDbLine
 10
-270.086776002368
 20
-1032.703509760599
 11
-270.486776002367
 21
-1032.303509760599
  0
LINE
  5
226
100
AcDbEntity
  8
1
  6
CENTER_DASH_DASH
 62
           2
100
AcDbLine
 10
-270.086776002367
 20
-1028.703509760599
 11
-270.486776002367
 21
-1029.103509760599
  0
LINE
  5
225
100
AcDbEntity
  8
1
  6
CENTER_DASH_DASH
 62
           2
100
AcDbLine
 10
-270.086776002368
 20
-1032.703509760599
 11
-270.086776002367
 21
-1028.703509760599
  0
LINE
  5
224
100
AcDbEntity
  8
1
  6
CENTER_DASH_DASH
 62
           4
100
AcDbLine
 10
-263.997269178318
 20
-1029.458529879905
 11
-264.486776002367
 21
-1030.7035097606
  0
LINE
  5
223
100
AcDbEntity
  8
1
  6
CENTER_DASH_DASH
 62
           4
100
AcDbLine
 10
-263.997269178318
 20
-1031.948489641294
 11
-262.325661488384
 21
-1032.664118967058
  0
LINE
  5
222
100
AcDbEntity
  8
1
  6
CENTER_DASH_DASH
 62
           4
100
AcDbLine
 10
-264.486776002367
 20
-1030.7035097606
 11
-263.997269178318
 21
-1031.948489641294
  0
LINE
  5
221
100
AcDbEntity
  8
1
  6
CENTER_DASH_DASH
 62
           2
100
AcDbLine
 10
-263.926776002368
 20
-1026.003509760599
 11
-264.486776002367
 21
-1026.149584845924
  0
LINE
  5
220
100
AcDbEntity
  8
1
  6
CENTER_DASH_DASH
 62
           2
100
AcDbLine
 10
-263.926776002368
 20
-1026.003509760599
 11
-263.926776002368
 21
-1035.403509760599
  0
LINE
  5
21F
100
AcDbEntity
  8
1
  6
CENTER_DASH_DASH
 62
           2
100
AcDbLine
 10
-264.486776002367
 20
-1035.257434675275
 11
-263.926776002368
 21
-1035.403509760599
  0
LINE
  5
21E
100
AcDbEntity
  8
1
  6
CENTER_DASH_DASH
 62
           4
100
AcDbLine
 10
-262.325661488384
 20
-1028.74290055414
 11
-263.997269178318
 21
-1029.458529879905
  0
LINE
  5
21D
100
AcDbEntity
  8
1
  6
CENTER_DASH_DASH
 62
           2
100
AcDbLine
 10
-264.486776002367
 20
-1026.149584845924
 11
-264.486776002367
 21
-1035.257434675275
  0
ENDBLK
  5
230
100
AcDbEntity
  8
0
100
AcDbBlockEnd
  0
BLOCK
  5
73
100
AcDbEntity
  8
0
100
AcDbBlockBegin
  2
M04_____MI__9
 70
           0
 10
0.0
 20
0.0
 30
0.0
  3
M04_____MI__9
  1

  0
ARC
  5
243
100
AcDbEntity
  8
1
  6
CENTER_DASH_DASH
 62
           2
100
AcDbCircle
 10
-268.440109335701
 20
-1095.790176427267
 40
6.453915263018
100
AcDbArc
 50
-45.627759168967
 51
0.769421858332
  0
ARC
  5
242
100
AcDbEntity
  8
1
  6
CENTER_DASH_DASH
 62
           2
100
AcDbCircle
 10
-268.440109335701
 20
-1095.616843093934
 40
6.453915263019
100
AcDbArc
 50
-0.769421858322
 51
45.627759168972
  0
LINE
  5
241
100
AcDbEntity
  8
1
  6
CENTER_DASH_DASH
 62
           2
100
AcDbLine
 10
-264.486776002367
 20
-1091.149584845925
 11
-264.486776002367
 21
-1100.257434675276
  0
LINE
  5
240
100
AcDbEntity
  8
1
  6
CENTER_DASH_DASH
 62
           4
100
AcDbLine
 10
-262.325661488384
 20
-1093.742900554141
 11
-263.997269178318
 21
-1094.458529879906
  0
LINE
  5
23F
100
AcDbEntity
  8
1
  6
CENTER_DASH_DASH
 62
           2
100
AcDbLine
 10
-264.486776002367
 20
-1100.257434675276
 11
-263.926776002368
 21
-1100.4035097606
  0
LINE
  5
23E
100
AcDbEntity
  8
1
  6
CENTER_DASH_DASH
 62
           2
100
AcDbLine
 10
-263.926776002368
 20
-1091.0035097606
 11
-263.926776002368
 21
-1100.4035097606
  0
LINE
  5
23D
100
AcDbEntity
  8
1
  6
CENTER_DASH_DASH
 62
           2
100
AcDbLine
 10
-263.926776002368
 20
-1091.0035097606
 11
-264.486776002367
 21
-1091.149584845925
  0
LINE
  5
23C
100
AcDbEntity
  8
1
  6
CENTER_DASH_DASH
 62
           4
100
AcDbLine
 10
-264.486776002367
 20
-1095.703509760601
 11
-263.997269178318
 21
-1096.948489641295
  0
LINE
  5
23B
100
AcDbEntity
  8
1
  6
CENTER_DASH_DASH
 62
           4
100
AcDbLine
 10
-263.997269178318
 20
-1096.948489641295
 11
-262.325661488384
 21
-1097.664118967059
  0
LINE
  5
23A
100
AcDbEntity
  8
1
  6
CENTER_DASH_DASH
 62
           4
100
AcDbLine
 10
-263.997269178318
 20
-1094.458529879906
 11
-264.486776002367
 21
-1095.703509760601
  0
LINE
  5
239
100
AcDbEntity
  8
1
  6
CENTER_DASH_DASH
 62
           2
100
AcDbLine
 10
-270.086776002368
 20
-1097.7035097606
 11
-270.086776002367
 21
-1093.7035097606
  0
LINE
  5
238
100
AcDbEntity
  8
1
  6
CENTER_DASH_DASH
 62
           2
100
AcDbLine
 10
-270.086776002367
 20
-1093.7035097606
 11
-270.486776002367
 21
-1094.1035097606
  0
LINE
  5
237
100
AcDbEntity
  8
1
  6
CENTER_DASH_DASH
 62
           2
100
AcDbLine
 10
-270.086776002368
 20
-1097.7035097606
 11
-270.486776002367
 21
-1097.3035097606
  0
LINE
  5
236
100
AcDbEntity
  8
1
  6
CENTER_DASH_DASH
 62
           2
100
AcDbLine
 10
-270.486776002367
 20
-1097.3035097606
 11
-270.486776002367
 21
-1094.1035097606
  0
LINE
  5
235
100
AcDbEntity
  8
1
  6
CENTER_DASH_DASH
 62
           2
100
AcDbLine
 10
-264.486776002367
 20
-1097.3035097606
 11
-270.486776002367
 21
-1097.3035097606
  0
LINE
  5
234
100
AcDbEntity
  8
1
  6
CENTER_DASH_DASH
 62
           2
100
AcDbLine
 10
-270.486776002367
 20
-1094.1035097606
 11
-264.486776002367
 21
-1094.1035097606
  0
LINE
  5
233
100
AcDbEntity
  8
1
  6
CENTER_DASH_DASH
 62
           2
100
AcDbLine
 10
-264.486776002367
 20
-1097.7035097606
 11
-270.086776002368
 21
-1097.7035097606
  0
LINE
  5
232
100
AcDbEntity
  8
1
  6
CENTER_DASH_DASH
 62
           2
100
AcDbLine
 10
-270.086776002367
 20
-1093.7035097606
 11
-264.486776002367
 21
-1093.703509760601
  0
LINE
  5
231
100
AcDbEntity
  8
1
  6
DOT_CENTER
 62
           1
100
AcDbLine
 10
-259.816697337114
 20
-1095.703509760601
 11
-272.085272005039
 21
-1095.7035097606
  0
ENDBLK
  5
244
100
AcDbEntity
  8
0
100
AcDbBlockEnd
  0
BLOCK
  5
75
100
AcDbEntity
  8
0
100
AcDbBlockBegin
  2
_X___X__10
 70
           0
 10
0.0
 20
0.0
 30
0.0
  3
_X___X__10
  1

  0
ARC
  5
28F
100
AcDbEntity
  8
1
  6
CONTINUOUS
 62
           7
100
AcDbCircle
 10
-259.986776002367
 20
-1064.2035097606
 40
1.0
100
AcDbArc
 50
-90.0
 51
0.0
  0
ARC
  5
28E
100
AcDbEntity
  8
1
  6
CONTINUOUS
 62
           7
100
AcDbCircle
 10
-260.086776002372
 20
-1050.635556732832
 40
1.0
100
AcDbArc
 50
180.0
 51
-176.103575673908
  0
ARC
  5
28D
100
AcDbEntity
  8
1
  6
CONTINUOUS
 62
           7
100
AcDbCircle
 10
-226.486776002375
 20
-1092.7035097606
 40
0.999999999998
100
AcDbArc
 50
-89.999999999948
 51
0.0
  0
ARC
  5
28C
100
AcDbEntity
  8
1
  6
CONTINUOUS
 62
           7
100
AcDbCircle
 10
-239.486776002375
 20
-1065.7035097606
 40
1.0
100
AcDbArc
 50
90.0
 51
180.0
  0
ARC
  5
28B
100
AcDbEntity
  8
1
  6
CONTINUOUS
 62
           7
100
AcDbCircle
 10
-226.486776002375
 20
-1065.7035097606
 40
1.0
100
AcDbArc
 50
0.0
 51
90.0
  0
ARC
  5
28A
100
AcDbEntity
  8
1
  6
CONTINUOUS
 62
           7
100
AcDbCircle
 10
-239.486776002375
 20
-1092.7035097606
 40
1.0
100
AcDbArc
 50
180.0
 51
-89.999999999948
  0
ARC
  5
289
100
AcDbEntity
  8
1
  6
CONTINUOUS
 62
           7
100
AcDbCircle
 10
-224.766776002375
 20
-1080.403509760598
 40
0.719999999999
100
AcDbArc
 50
100.388857815581
 51
-179.999999999837
  0
ARC
  5
288
100
AcDbEntity
  8
1
  6
CONTINUOUS
 62
           7
100
AcDbCircle
 10
-224.766776002376
 20
-1078.0035097606
 40
0.719999999999
100
AcDbArc
 50
180.0
 51
-100.388857815396
  0
ARC
  5
287
100
AcDbEntity
  8
1
  6
CONTINUOUS
 62
           7
100
AcDbCircle
 10
-262.736776002367
 20
-1050.653509760598
 40
0.349999999998
100
AcDbArc
 50
-8.565828059549
 51
-3.887909560866
  0
ARC
  5
286
100
AcDbEntity
  8
1
  6
CONTINUOUS
 62
           7
100
AcDbCircle
 10
-224.986776002375
 20
-1079.2035097606
 40
0.5
100
AcDbArc
 50
-79.611142184614
 51
79.611142184488
  0
ARC
  5
285
100
AcDbEntity
  8
1
  6
CONTINUOUS
 62
           7
100
AcDbCircle
 10
-232.986776002375
 20
-1047.7035097606
 40
18.0
100
AcDbArc
 50
-109.188136453721
 51
-70.811863546273
  0
ARC
  5
284
100
AcDbEntity
  8
1
  6
CONTINUOUS
 62
           7
100
AcDbCircle
 10
-232.986776002375
 20
-1110.7035097606
 40
18.0
100
AcDbArc
 50
70.811863546278
 51
109.188136453721
  0
LINE
  5
283
100
AcDbEntity
  8
1
  6
CONTINUOUS
 62
           7
100
AcDbLine
 10
-261.486776002367
 20
-1020.7035097606
 11
-266.486776002367
 21
-1020.7035097606
  0
LINE
  5
282
100
AcDbEntity
  8
1
  6
CONTINUOUS
 62
           7
100
AcDbLine
 10
-261.486776002367
 20
-1037.703509760599
 11
-261.486776002367
 21
-1020.7035097606
  0
LINE
  5
281
100
AcDbEntity
  8
1
  6
CONTINUOUS
 62
           7
100
AcDbLine
 10
-266.486776002367
 20
-1050.7035097606
 11
-260.286776002367
 21
-1050.7035097606
  0
LINE
  5
280
100
AcDbEntity
  8
1
  6
CONTINUOUS
 62
           7
100
AcDbLine
 10
-266.486776002367
 20
-1105.7035097606
 11
-266.486776002367
 21
-1020.7035097606
  0
LINE
  5
27F
100
AcDbEntity
  8
1
  6
CONTINUOUS
 62
           7
100
AcDbLine
 10
-260.286776002367
 20
-1105.7035097606
 11
-266.486776002367
 21
-1105.7035097606
  0
LINE
  5
27E
100
AcDbEntity
  8
1
  6
CONTINUOUS
 62
           7
100
AcDbLine
 10
-260.286776002367
 20
-1050.7035097606
 11
-260.286776002367
 21
-1105.7035097606
  0
LINE
  5
27D
100
AcDbEntity
  8
1
  6
CONTINUOUS
 62
           7
100
AcDbLine
 10
-264.486776002367
 20
-1020.7035097606
 11
-264.486776002367
 21
-1050.7035097606
  0
LINE
  5
27C
100
AcDbEntity
  8
1
  6
DOT_CENTER
 62
           4
100
AcDbLine
 10
-267.486776002367
 20
-1095.7035097606
 11
-263.486776002367
 21
-1095.7035097606
  0
LINE
  5
27B
100
AcDbEntity
  8
1
  6
DOT_CENTER
 62
           4
100
AcDbLine
 10
-267.486776002367
 20
-1030.7035097606
 11
-263.486776002367
 21
-1030.7035097606
  0
LINE
  5
27A
100
AcDbEntity
  8
1
  6
CONTINUOUS
 62
           7
100
AcDbLine
 10
-259.986776002367
 20
-1065.2035097606
 11
-260.286776002367
 21
-1065.2035097606
  0
LINE
  5
279
100
AcDbEntity
  8
1
  6
CONTINUOUS
 62
           7
100
AcDbLine
 10
-257.986776002367
 20
-1067.2035097606
 11
-257.986776002367
 21
-1067.1535097606
  0
LINE
  5
278
100
AcDbEntity
  8
1
  6
CONTINUOUS
 62
           7
100
AcDbLine
 10
-257.586776002367
 20
-1067.2035097606
 11
-257.586776002367
 21
-1067.1535097606
  0
LINE
  5
277
100
AcDbEntity
  8
1
  6
CONTINUOUS
 62
           7
100
AcDbLine
 10
-260.286776002367
 20
-1065.2035097606
 11
-260.286776002367
 21
-1121.7035097606
  0
LINE
  5
276
100
AcDbEntity
  8
1
  6
CONTINUOUS
 62
           7
100
AcDbLine
 10
-256.986776002367
 20
-1091.2535097606
 11
-258.386776002367
 21
-1091.2535097606
  0
LINE
  5
275
100
AcDbEntity
  8
1
  6
CONTINUOUS
 62
           7
100
AcDbLine
 10
-258.386776002367
 20
-1067.2035097606
 11
-258.386776002367
 21
-1067.1535097606
  0
LINE
  5
274
100
AcDbEntity
  8
1
  6
CONTINUOUS
 62
           7
100
AcDbLine
 10
-258.386776002367
 20
-1067.1535097606
 11
-256.986776002367
 21
-1067.1535097606
  0
LINE
  5
273
100
AcDbEntity
  8
1
  6
CONTINUOUS
 62
           7
100
AcDbLine
 10
-256.986776002367
 20
-1019.7035097606
 11
-258.986776002367
 21
-1019.7035097606
  0
LINE
  5
272
100
AcDbEntity
  8
1
  6
CONTINUOUS
 62
           7
100
AcDbLine
 10
-258.986776002367
 20
-1019.7035097606
 11
-258.986776002367
 21
-1064.2035097606
  0
LINE
  5
271
100
AcDbEntity
  8
1
  6
CONTINUOUS
 62
           7
100
AcDbLine
 10
-264.986776002367
 20
-1105.7035097606
 11
-264.986776002367
 21
-1121.7035097606
  0
LINE
  5
270
100
AcDbEntity
  8
1
  6
CONTINUOUS
 62
           7
100
AcDbLine
 10
-264.986776002367
 20
-1121.7035097606
 11
-256.986776002367
 21
-1121.7035097606
  0
LINE
  5
26F
100
AcDbEntity
  8
1
  6
CONTINUOUS
 62
           7
100
AcDbLine
 10
-256.986776002367
 20
-1067.2035097606
 11
-256.986776002367
 21
-1019.7035097606
  0
LINE
  5
26E
100
AcDbEntity
  8
1
  6
CONTINUOUS
 62
           7
100
AcDbLine
 10
-256.986776002367
 20
-1121.7035097606
 11
-256.986776002367
 21
-1091.2035097606
  0
LINE
  5
26D
100
AcDbEntity
  8
1
  6
CONTINUOUS
 62
           7
100
AcDbLine
 10
-257.586776002367
 20
-1091.2535097606
 11
-257.586776002367
 21
-1091.2035097606
  0
LINE
  5
26C
100
AcDbEntity
  8
1
  6
CONTINUOUS
 62
           7
100
AcDbLine
 10
-257.986776002367
 20
-1091.2535097606
 11
-257.986776002367
 21
-1091.2035097606
  0
LINE
  5
26B
100
AcDbEntity
  8
1
  6
CONTINUOUS
 62
           7
100
AcDbLine
 10
-258.386776002367
 20
-1091.2535097606
 11
-258.386776002367
 21
-1091.2035097606
  0
LINE
  5
26A
100
AcDbEntity
  8
1
  6
CONTINUOUS
 62
           7
100
AcDbLine
 10
-261.586776002367
 20
-1121.7035097606
 11
-261.586776002369
 21
-1105.703509760599
  0
LINE
  5
269
100
AcDbEntity
  8
1
  6
CONTINUOUS
 62
           7
100
AcDbLine
 10
-260.686776002372
 20
-1035.7035097606
 11
-259.186776002372
 21
-1035.7035097606
  0
LINE
  5
268
100
AcDbEntity
  8
1
  6
CONTINUOUS
 62
           7
100
AcDbLine
 10
-260.686776002372
 20
-1050.7035097606
 11
-260.686776002372
 21
-1035.7035097606
  0
LINE
  5
267
100
AcDbEntity
  8
1
  6
CONTINUOUS
 62
           7
100
AcDbLine
 10
-259.186776002372
 20
-1035.7035097606
 11
-259.186776002372
 21
-1038.339296198227
  0
LINE
  5
266
100
AcDbEntity
  8
1
  6
CONTINUOUS
 62
           7
100
AcDbLine
 10
-261.086776002372
 20
-1050.635556732832
 11
-261.086776002372
 21
-1038.946402979413
  0
LINE
  5
265
100
AcDbEntity
  8
1
  6
CONTINUOUS
 62
           7
100
AcDbLine
 10
-259.186776002372
 20
-1051.242663514018
 11
-259.186776002372
 21
-1054.164356007182
  0
LINE
  5
264
100
AcDbEntity
  8
1
  6
CONTINUOUS
 62
           7
100
AcDbLine
 10
-259.186776002372
 20
-1038.339296198227
 11
-259.186776002372
 21
-1051.242663514018
  0
LINE
  5
263
100
AcDbEntity
  8
1
  6
CONTINUOUS
 62
           7
100
AcDbLine
 10
-259.186776002372
 20
-1054.164356007182
 11
-259.186776002371
 21
-1064.803509760604
  0
LINE
  5
262
100
AcDbEntity
  8
1
  6
CONTINUOUS
 62
           7
100
AcDbLine
 10
-258.386776002368
 20
-1067.203509760601
 11
-258.386776002368
 21
-1091.203509760601
  0
LINE
  5
261
100
AcDbEntity
  8
1
  6
CONTINUOUS
 62
           7
100
AcDbLine
 10
-261.709755065297
 20
-1040.7035097606
 11
-261.686776002371
 21
-1040.7035097606
  0
LINE
  5
260
100
AcDbEntity
  8
1
  6
CONTINUOUS
 62
           7
100
AcDbLine
 10
-261.686776002371
 20
-1050.705640724046
 11
-261.686776002371
 21
-1037.703509760599
  0
LINE
  5
25F
100
AcDbEntity
  8
1
  6
CONTINUOUS
 62
           7
100
AcDbLine
 10
-261.686776002371
 20
-1037.703509760599
 11
-261.08677600237
 21
-1037.703509760599
  0
LINE
  5
25E
100
AcDbEntity
  8
1
  6
CONTINUOUS
 62
           7
100
AcDbLine
 10
-261.08677600237
 20
-1037.703509760599
 11
-261.08677600237
 21
-1050.705640724046
  0
LINE
  5
25D
100
AcDbEntity
  8
1
  6
CONTINUOUS
 62
           7
100
AcDbLine
 10
-261.686776002371
 20
-1049.7035097606
 11
-261.686776002371
 21
-1050.053509760599
  0
LINE
  5
25C
100
AcDbEntity
  8
1
  6
CONTINUOUS
 62
           7
100
AcDbLine
 10
-264.486776002367
 20
-1038.5535097606
 11
-264.486776002365
 21
-1050.705640724045
  0
LINE
  5
25B
100
AcDbEntity
  8
1
  6
CONTINUOUS
 62
           7
100
AcDbLine
 10
-261.686776002368
 20
-1040.353509760599
 11
-261.686776002371
 21
-1040.7035097606
  0
LINE
  5
25A
100
AcDbEntity
  8
1
  6
CONTINUOUS
 62
           7
100
AcDbLine
 10
-264.486776002376
 20
-1050.705640724045
 11
-264.486776002366
 21
-1039.2035097606
  0
LINE
  5
259
100
AcDbEntity
  8
1
  6
CONTINUOUS
 62
           7
100
AcDbLine
 10
-258.386776002368
 20
-1091.203509760601
 11
-240.486776002374
 21
-1091.203509760601
  0
LINE
  5
258
100
AcDbEntity
  8
1
  6
CONTINUOUS
 62
           7
100
AcDbLine
 10
-258.386776002368
 20
-1067.203509760601
 11
-240.486776002374
 21
-1067.203509760601
  0
LINE
  5
257
100
AcDbEntity
  8
1
  6
CONTINUOUS
 62
           7
100
AcDbLine
 10
-230.736776002372
 20
-1072.7035097606
 11
-235.236776002372
 21
-1072.703509760598
  0
LINE
  5
256
100
AcDbEntity
  8
1
  6
CONTINUOUS
 62
           7
100
AcDbLine
 10
-235.236776002372
 20
-1072.703509760598
 11
-232.986776002375
 21
-1068.2035097606
  0
LINE
  5
255
100
AcDbEntity
  8
1
  6
CONTINUOUS
 62
           7
100
AcDbLine
 10
-232.986776002375
 20
-1068.2035097606
 11
-230.736776002372
 21
-1072.7035097606
  0
LINE
  5
254
100
AcDbEntity
  8
1
  6
CONTINUOUS
 62
           7
100
AcDbLine
 10
-227.070696219274
 20
-1064.703509760598
 11
-226.486776002375
 21
-1064.7035097606
  0
LINE
  5
253
100
AcDbEntity
  8
1
  6
CONTINUOUS
 62
           7
100
AcDbLine
 10
-225.486776002375
 20
-1080.4035097606
 11
-225.486776002375
 21
-1092.7035097606
  0
LINE
  5
252
100
AcDbEntity
  8
1
  6
CONTINUOUS
 62
           7
100
AcDbLine
 10
-225.486776002375
 20
-1080.4035097606
 11
-240.486776002374
 21
-1080.403509760598
  0
LINE
  5
251
100
AcDbEntity
  8
1
  6
CONTINUOUS
 62
           7
100
AcDbLine
 10
-225.486776002375
 20
-1078.0035097606
 11
-240.486776002375
 21
-1078.0035097606
  0
LINE
  5
250
100
AcDbEntity
  8
1
  6
CONTINUOUS
 62
           7
100
AcDbLine
 10
-225.486776002375
 20
-1065.7035097606
 11
-225.486776002375
 21
-1078.0035097606
  0
LINE
  5
24F
100
AcDbEntity
  8
1
  6
CONTINUOUS
 62
           7
100
AcDbLine
 10
-240.486776002375
 20
-1092.7035097606
 11
-240.486776002375
 21
-1065.7035097606
  0
LINE
  5
24E
100
AcDbEntity
  8
1
  6
CONTINUOUS
 62
           7
100
AcDbLine
 10
-239.486776002375
 20
-1064.7035097606
 11
-238.902855785475
 21
-1064.7035097606
  0
LINE
  5
24D
100
AcDbEntity
  8
1
  6
CONTINUOUS
 62
           7
100
AcDbLine
 10
-239.486776002374
 20
-1093.703509760598
 11
-238.902855785475
 21
-1093.7035097606
  0
LINE
  5
24C
100
AcDbEntity
  8
1
  6
CONTINUOUS
 62
           7
100
AcDbLine
 10
-239.413068988478
 20
-1093.7035097606
 11
-239.486776002374
 21
-1093.703509760598
  0
LINE
  5
24B
100
AcDbEntity
  8
1
  6
CONTINUOUS
 62
           7
100
AcDbLine
 10
-227.070696219275
 20
-1093.7035097606
 11
-226.486776002374
 21
-1093.703509760598
  0
LINE
  5
24A
100
AcDbEntity
  8
1
  6
CONTINUOUS
 62
           7
100
AcDbLine
 10
-240.486776002375
 20
-1092.7035097606
 11
-240.486776002375
 21
-1065.7035097606
  0
LINE
  5
249
100
AcDbEntity
  8
1
  6
CONTINUOUS
 62
           7
100
AcDbLine
 10
-235.236776002372
 20
-1085.703509760598
 11
-230.736776002372
 21
-1085.703509760598
  0
LINE
  5
248
100
AcDbEntity
  8
1
  6
CONTINUOUS
 62
           7
100
AcDbLine
 10
-232.986776002375
 20
-1090.203509760599
 11
-235.236776002372
 21
-1085.703509760598
  0
LINE
  5
247
100
AcDbEntity
  8
1
  6
CONTINUOUS
 62
           7
100
AcDbLine
 10
-230.736776002372
 20
-1085.703509760598
 11
-232.986776002375
 21
-1090.203509760599
  0
LINE
  5
246
100
AcDbEntity
  8
1
  6
DOT_CENTER
 62
           4
100
AcDbLine
 10
-232.986776002374
 20
-1062.270827022919
 11
-232.986776002375
 21
-1095.622071900587
  0
LINE
  5
245
100
AcDbEntity
  8
1
  6
DOT_CENTER
 62
           1
100
AcDbLine
 10
-268.751897975906
 20
-1079.2035097606
 11
-223.849064401817
 21
-1079.2035097606
  0
INSERT
  5
76
100
AcDbEntity
  8
0
100
AcDbBlockReference
  2
___B_V____A
 10
1204.945142015726
 20
-661.42905528921
  0
INSERT
  5
77
100
AcDbEntity
  8
0
100
AcDbBlockReference
  2
M04_____MI__8
 10
0.0
 20
0.0
  0
INSERT
  5
78
100
AcDbEntity
  8
0
100
AcDbBlockReference
  2
M04_____MI__9
 10
0.0
 20
0.0
  0
ENDBLK
  5
290
100
AcDbEntity
  8
0
100
AcDbBlockEnd
  0
BLOCK
  5
7A
100
AcDbEntity
  8
0
100
AcDbBlockBegin
  2
X_A______11
 70
           0
 10
0.0
 20
0.0
 30
0.0
  3
X_A______11
  1

  0
ARC
  5
2A7
100
AcDbEntity
  8
1
  6
CONTINUOUS
 62
           7
100
AcDbCircle
 10
-260.686776002372
 20
-1126.2035097606
 40
1.499999999999
100
AcDbArc
 50
-34.695153531243
 51
0.0
  0
ARC
  5
2A6
100
AcDbEntity
  8
1
  6
CONTINUOUS
 62
           7
100
AcDbCircle
 10
-263.686776002372
 20
-1133.172074477407
 40
1.499999999999
100
AcDbArc
 50
145.304846468767
 51
180.0
  0
ARC
  5
2A5
100
AcDbEntity
  8
1
  6
CONTINUOUS
 62
           7
100
AcDbCircle
 10
-263.686776002372
 20
-1147.7035097606
 40
1.5
100
AcDbArc
 50
180.0
 51
-90.0
  0
ARC
  5
2A4
100
AcDbEntity
  8
1
  6
CONTINUOUS
 62
           7
100
AcDbCircle
 10
-258.186776002372
 20
-1149.2035097606
 40
1.5
100
AcDbArc
 50
0.0
 51
90.0
  0
ARC
  5
2A3
100
AcDbEntity
  8
1
  6
CONTINUOUS
 62
           7
100
AcDbCircle
 10
-258.18677600238
 20
-1130.498092799921
 40
3.0
100
AcDbArc
 50
145.30484646876
 51
-179.999999999943
  0
ARC
  5
2A2
100
AcDbEntity
  8
1
  6
CONTINUOUS
 62
           7
100
AcDbCircle
 10
-257.686776002376
 20
-1130.654276472568
 40
5.000000000001
100
AcDbArc
 50
145.246425268486
 51
-179.999999999976
  0
ARC
  5
2A1
100
AcDbEntity
  8
1
  6
CONTINUOUS
 62
           7
100
AcDbCircle
 10
-291.186334310554
 20
-1135.212917913071
 40
29.999999999985
100
AcDbArc
 50
-23.558574976003
 51
0.31091180233
  0
ARC
  5
2A0
100
AcDbEntity
  8
1
  6
CONTINUOUS
 62
           7
100
AcDbCircle
 10
-292.686334310554
 20
-1135.212917913071
 40
29.999999999985
100
AcDbArc
 50
-23.558574976003
 51
0.31091180233
  0
LINE
  5
29F
100
AcDbEntity
  8
1
  6
CONTINUOUS
 62
           7
100
AcDbLine
 10
-265.186776002372
 20
-1147.7035097606
 11
-265.186776002372
 21
-1133.172074477407
  0
LINE
  5
29E
100
AcDbEntity
  8
1
  6
CONTINUOUS
 62
           7
100
AcDbLine
 10
-258.186776002372
 20
-1149.2035097606
 11
-263.686776002372
 21
-1149.2035097606
  0
LINE
  5
29D
100
AcDbEntity
  8
1
  6
CONTINUOUS
 62
           7
100
AcDbLine
 10
-258.186776002372
 20
-1217.7035097606
 11
-258.186776002372
 21
-1149.2035097606
  0
LINE
  5
29C
100
AcDbEntity
  8
1
  6
CONTINUOUS
 62
           7
100
AcDbLine
 10
-256.686776002372
 20
-1217.7035097606
 11
-258.186776002372
 21
-1217.7035097606
  0
LINE
  5
29B
100
AcDbEntity
  8
1
  6
CONTINUOUS
 62
           7
100
AcDbLine
 10
-256.686776002372
 20
-1149.2035097606
 11
-256.686776002372
 21
-1217.7035097606
  0
LINE
  5
29A
100
AcDbEntity
  8
1
  6
CONTINUOUS
 62
           7
100
AcDbLine
 10
-263.686776002372
 20
-1147.7035097606
 11
-258.186776002372
 21
-1147.7035097606
  0
LINE
  5
299
100
AcDbEntity
  8
1
  6
CONTINUOUS
 62
           7
100
AcDbLine
 10
-263.686776002372
 20
-1147.2035097606
 11
-263.686776002372
 21
-1147.7035097606
  0
LINE
  5
298
100
AcDbEntity
  8
1
  6
CONTINUOUS
 62
           7
100
AcDbLine
 10
-264.920064289837
 20
-1132.318259509162
 11
-260.686776002372
 21
-1126.2035097606
  0
LINE
  5
297
100
AcDbEntity
  8
1
  6
DOT_CENTER
 62
           4
100
AcDbLine
 10
-259.186776002372
 20
-1184.7035097606
 11
-255.686776002372
 21
-1184.7035097606
  0
LINE
  5
296
100
AcDbEntity
  8
1
  6
DOT_CENTER
 62
           4
100
AcDbLine
 10
-259.186776002372
 20
-1208.7035097606
 11
-255.686776002372
 21
-1208.7035097606
  0
LINE
  5
295
100
AcDbEntity
  8
1
  6
CONTINUOUS
 62
           7
100
AcDbLine
 10
-259.186776002372
 20
-1121.7035097606
 11
-259.186776002372
 21
-1126.2035097606
  0
LINE
  5
294
100
AcDbEntity
  8
1
  6
CONTINUOUS
 62
           7
100
AcDbLine
 10
-262.686776002376
 20
-1130.65427647257
 11
-262.686776002376
 21
-1135.375710153005
  0
LINE
  5
293
100
AcDbEntity
  8
1
  6
CONTINUOUS
 62
           7
100
AcDbLine
 10
-261.18677600238
 20
-1130.498092799924
 11
-261.186776002376
 21
-1135.375710153181
  0
LINE
  5
292
100
AcDbEntity
  8
1
  6
CONTINUOUS
 62
           7
100
AcDbLine
 10
-259.453487714907
 20
-1127.057324728845
 11
-260.653352577311
 21
-1128.79046286343
  0
LINE
  5
291
100
AcDbEntity
  8
1
  6
CONTINUOUS
 62
           7
100
AcDbLine
 10
-260.686776002372
 20
-1126.2035097606
 11
-260.686776002372
 21
-1121.7035097606
  0
ENDBLK
  5
2A8
100
AcDbEntity
  8
0
100
AcDbBlockEnd
  0
BLOCK
  5
7C
100
AcDbEntity
  8
0
100
AcDbBlockBegin
  2
A__12
 70
           0
 10
0.0
 20
0.0
 30
0.0
  3
A__12
  1

  0
INSERT
  5
7D
100
AcDbEntity
  8
0
100
AcDbBlockReference
  2
X_A______11
 10
0.0
 20
0.0
  0
ENDBLK
  5
2A9
100
AcDbEntity
  8
0
100
AcDbBlockEnd
  0
BLOCK
  5
7F
100
AcDbEntity
  8
0
100
AcDbBlockBegin
  2
X_A______13
 70
           0
 10
0.0
 20
0.0
 30
0.0
  3
X_A______13
  1

  0
ARC
  5
2CC
100
AcDbEntity
  8
1
  6
CENTER_DASH_DASH
 62
           2
100
AcDbCircle
 10
19.476231557777
 20
-1100.699421152302
 40
1.500000000001
100
AcDbArc
 50
146.899822003267
 51
-123.100177996744
  0
ARC
  5
2CB
100
AcDbEntity
  8
1
  6
CENTER_DASH_DASH
 62
           2
100
AcDbCircle
 10
13.7421336411
 20
-1109.495449863144
 40
1.5
100
AcDbArc
 50
56.899822003248
 51
146.899822003284
  0
ARC
  5
2CA
100
AcDbEntity
  8
1
  6
CENTER_DASH_DASH
 62
           2
100
AcDbCircle
 10
22.490267809325
 20
-1109.229722889301
 40
3.5
100
AcDbArc
 50
-123.10017799673
 51
-65.065896747514
  0
ARC
  5
2C9
100
AcDbEntity
  8
1
  6
CENTER_DASH_DASH
 62
           2
100
AcDbCircle
 10
23.497606212842
 20
-1101.530359325886
 40
3.000000000001
100
AcDbArc
 50
-123.100177996736
 51
-77.223299058779
  0
ARC
  5
2C8
100
AcDbEntity
  8
1
  6
CENTER_DASH_DASH
 62
           2
100
AcDbCircle
 10
-8.762262885424
 20
-1092.735907791948
 40
5.0
100
AcDbArc
 50
11.619868521084
 51
56.899822003269
  0
ARC
  5
2C7
100
AcDbEntity
  8
1
  6
CENTER_DASH_DASH
 62
           2
100
AcDbCircle
 10
21.067186368587
 20
-1103.825569505171
 40
20.0
100
AcDbArc
 50
40.062349377593
 51
56.899822003276
  0
ARC
  5
2C6
100
AcDbEntity
  8
1
  6
CENTER_DASH_DASH
 62
           2
100
AcDbCircle
 10
24.006728708582
 20
-1092.573905817844
 40
27.133651381217
100
AcDbArc
 50
-167.444841964196
 51
-128.08542525432
  0
ARC
  5
2C5
100
AcDbEntity
  8
1
  6
CENTER_DASH_DASH
 62
           2
100
AcDbCircle
 10
63.285403791865
 20
-1139.7035097606
 40
9.0
100
AcDbArc
 50
-123.100177996726
 51
34.513566760292
  0
ARC
  5
2C4
100
AcDbEntity
  8
1
  6
CENTER_DASH_DASH
 62
           2
100
AcDbCircle
 10
27.865357016431
 20
-1120.791336791159
 40
16.75
100
AcDbArc
 50
43.00982057657
 51
102.776700941209
  0
ARC
  5
2C3
100
AcDbEntity
  8
1
  6
CENTER_DASH_DASH
 62
           2
100
AcDbCircle
 10
63.285403791865
 20
-1139.7035097606
 40
3.75
100
AcDbArc
 50
-136.990179423418
 51
43.009820576555
  0
ARC
  5
2C2
100
AcDbEntity
  8
1
  6
CENTER_DASH_DASH
 62
           2
100
AcDbCircle
 10
27.865357016431
 20
-1120.791336791159
 40
9.25
100
AcDbArc
 50
43.009820576568
 51
114.934103252468
  0
LINE
  5
2C1
100
AcDbEntity
  8
1
  6
DOT_CENTER
 62
           1
100
AcDbLine
 10
4.560651359004
 20
-1082.321536920916
 11
-52.377900674159
 21
-1045.2035097606
  0
LINE
  5
2C0
100
AcDbEntity
  8
1
  6
CENTER_DASH_DASH
 62
           2
100
AcDbLine
 10
7.269724495535
 20
-1113.930584568247
 11
26.929488781284
 21
-1083.772771845359
  0
LINE
  5
2BF
100
AcDbEntity
  8
1
  6
DOT_CENTER
 62
           4
100
AcDbLine
 10
63.285403791865
 20
-1140.7035097606
 11
63.285403791865
 21
-1133.7035097606
  0
LINE
  5
2BE
100
AcDbEntity
  8
1
  6
CENTER_DASH_DASH
 62
           2
100
AcDbLine
 10
3.996566330401
 20
-1068.822886258147
 11
26.929488781284
 21
-1083.772771845359
  0
LINE
  5
2BD
100
AcDbEntity
  8
1
  6
CENTER_DASH_DASH
 62
           2
100
AcDbLine
 10
31.989277638446
 20
-1087.071229103566
 11
26.929488781284
 21
-1083.772771845359
  0
LINE
  5
2BC
100
AcDbEntity
  8
1
  6
CENTER_DASH_DASH
 62
           2
100
AcDbLine
 10
60.021986244885
 20
-1119.073432060454
 11
36.374076508065
 21
-1090.953152705753
  0
LINE
  5
2BB
100
AcDbEntity
  8
1
  6
CENTER_DASH_DASH
 62
           2
100
AcDbLine
 10
70.701332234895
 20
-1134.604097507422
 11
60.021986244885
 21
-1119.073432060454
  0
LINE
  5
2BA
100
AcDbEntity
  8
1
  6
CENTER_DASH_DASH
 62
           2
100
AcDbLine
 10
7.269724495535
 20
-1113.930584568247
 11
58.370462720428
 21
-1147.242962941322
  0
LINE
  5
2B9
100
AcDbEntity
  8
1
  6
CENTER_DASH_DASH
 62
           2
100
AcDbLine
 10
19.17533901377
 20
-1098.414259521922
 11
17.918763483649
 21
-1097.595102676682
  0
LINE
  5
2B8
100
AcDbEntity
  8
1
  6
CENTER_DASH_DASH
 62
           2
100
AcDbLine
 10
11.529875124867
 20
-1110.142297803045
 11
10.273299594747
 21
-1109.323140957805
  0
LINE
  5
2B7
100
AcDbEntity
  8
1
  6
CENTER_DASH_DASH
 62
           2
100
AcDbLine
 10
18.219656027656
 20
-1099.880264307062
 11
19.17533901377
 21
-1098.414259521922
  0
LINE
  5
2B6
100
AcDbEntity
  8
1
  6
CENTER_DASH_DASH
 62
           2
100
AcDbLine
 10
11.529875124867
 20
-1110.142297803045
 11
12.48555811098
 21
-1108.676293017905
  0
LINE
  5
2B5
100
AcDbEntity
  8
1
  6
CENTER_DASH_DASH
 62
           2
100
AcDbLine
 10
21.859292522362
 20
-1104.043510386127
 11
18.657074712537
 21
-1101.955996682422
  0
LINE
  5
2B4
100
AcDbEntity
  8
1
  6
CENTER_DASH_DASH
 62
           2
100
AcDbLine
 10
66.027541774638
 20
-1137.145545866517
 11
40.113573339482
 21
-1109.365764730918
  0
LINE
  5
2B3
100
AcDbEntity
  8
1
  6
CENTER_DASH_DASH
 62
           2
100
AcDbLine
 10
34.629297373937
 20
-1114.481692519086
 11
60.543265809093
 21
-1142.261473654684
  0
LINE
  5
2B2
100
AcDbEntity
  8
1
  6
CENTER_DASH_DASH
 62
           2
100
AcDbLine
 10
14.56129048634
 20
-1108.238874333024
 11
20.578901837099
 21
-1112.161732459582
  0
LINE
  5
2B1
100
AcDbEntity
  8
1
  6
DOT_CENTER
 62
           1
100
AcDbLine
 10
73.338008032828
 20
-1146.256764522516
 11
53.232799550903
 21
-1133.150254998684
  0
LINE
  5
2B0
100
AcDbEntity
  8
1
  6
DOT_CENTER
 62
           1
100
AcDbLine
 10
56.732149029949
 20
-1149.756114001562
 11
69.838658553782
 21
-1129.650905519638
  0
LINE
  5
2AF
100
AcDbEntity
  8
1
  6
CENTER_DASH_DASH
 62
           2
100
AcDbLine
 10
-2.47808084
 20
-1098.472202220429
 11
-3.864735571975
 21
-1091.728819804716
  0
LINE
  5
2AE
100
AcDbEntity
  8
1
  6
CENTER_DASH_DASH
 62
           2
100
AcDbLine
 10
-41.277900678893
 20
-1039.308632099717
 11
-6.561266454256
 21
-1061.940274915542
  0
LINE
  5
2AD
100
AcDbEntity
  8
1
  6
CENTER_DASH_DASH
 62
           2
100
AcDbLine
 10
-6.561266454256
 20
-1061.940274915542
 11
3.996566330401
 21
-1068.822886258147
  0
LINE
  5
2AC
100
AcDbEntity
  8
1
  6
CENTER_DASH_DASH
 62
           2
100
AcDbLine
 10
-6.865454137648
 20
-1088.003827636304
 11
-22.921627581463
 21
-1077.53686877105
  0
LINE
  5
2AB
100
AcDbEntity
  8
1
  6
CENTER_DASH_DASH
 62
           2
100
AcDbLine
 10
-6.031740067958
 20
-1088.547322691546
 11
-6.865454137648
 21
-1088.003827636304
  0
LINE
  5
2AA
100
AcDbEntity
  8
1
  6
CENTER_DASH_DASH
 62
           2
100
AcDbLine
 10
-22.921627581463
 20
-1077.53686877105
 11
-41.277900676992
 21
-1065.57048362439
  0
ENDBLK
  5
2CD
100
AcDbEntity
  8
0
100
AcDbBlockEnd
  0
BLOCK
  5
81
100
AcDbEntity
  8
0
100
AcDbBlockBegin
  2
M04_____MI__14
 70
           0
 10
0.0
 20
0.0
 30
0.0
  3
M04_____MI__14
  1

  0
ARC
  5
2E0
100
AcDbEntity
  8
1
  6
CENTER_DASH_DASH
 62
           2
100
AcDbCircle
 10
-200.640109335699
 20
-1030.790176427266
 40
6.453915263018
100
AcDbArc
 50
-45.627759168967
 51
0.769421858332
  0
ARC
  5
2DF
100
AcDbEntity
  8
1
  6
CENTER_DASH_DASH
 62
           2
100
AcDbCircle
 10
-200.640109335699
 20
-1030.616843093933
 40
6.453915263019
100
AcDbArc
 50
-0.769421858322
 51
45.627759168974
  0
LINE
  5
2DE
100
AcDbEntity
  8
1
  6
CENTER_DASH_DASH
 62
           2
100
AcDbLine
 10
-196.686776002365
 20
-1026.149584845924
 11
-196.686776002365
 21
-1035.257434675275
  0
LINE
  5
2DD
100
AcDbEntity
  8
1
  6
CENTER_DASH_DASH
 62
           4
100
AcDbLine
 10
-194.525661488382
 20
-1028.74290055414
 11
-196.197269178316
 21
-1029.458529879905
  0
LINE
  5
2DC
100
AcDbEntity
  8
1
  6
CENTER_DASH_DASH
 62
           2
100
AcDbLine
 10
-196.686776002365
 20
-1035.257434675275
 11
-196.126776002366
 21
-1035.403509760599
  0
LINE
  5
2DB
100
AcDbEntity
  8
1
  6
CENTER_DASH_DASH
 62
           2
100
AcDbLine
 10
-196.126776002366
 20
-1026.003509760599
 11
-196.126776002366
 21
-1035.403509760599
  0
LINE
  5
2DA
100
AcDbEntity
  8
1
  6
CENTER_DASH_DASH
 62
           2
100
AcDbLine
 10
-196.126776002366
 20
-1026.003509760599
 11
-196.686776002365
 21
-1026.149584845924
  0
LINE
  5
2D9
100
AcDbEntity
  8
1
  6
CENTER_DASH_DASH
 62
           4
100
AcDbLine
 10
-196.686776002365
 20
-1030.7035097606
 11
-196.197269178316
 21
-1031.948489641294
  0
LINE
  5
2D8
100
AcDbEntity
  8
1
  6
CENTER_DASH_DASH
 62
           4
100
AcDbLine
 10
-196.197269178316
 20
-1031.948489641294
 11
-194.525661488382
 21
-1032.664118967058
  0
LINE
  5
2D7
100
AcDbEntity
  8
1
  6
CENTER_DASH_DASH
 62
           4
100
AcDbLine
 10
-196.197269178316
 20
-1029.458529879905
 11
-196.686776002365
 21
-1030.7035097606
  0
LINE
  5
2D6
100
AcDbEntity
  8
1
  6
CENTER_DASH_DASH
 62
           2
100
AcDbLine
 10
-202.286776002366
 20
-1032.703509760599
 11
-202.286776002365
 21
-1028.703509760599
  0
LINE
  5
2D5
100
AcDbEntity
  8
1
  6
CENTER_DASH_DASH
 62
           2
100
AcDbLine
 10
-202.286776002365
 20
-1028.703509760599
 11
-202.686776002365
 21
-1029.103509760599
  0
LINE
  5
2D4
100
AcDbEntity
  8
1
  6
CENTER_DASH_DASH
 62
           2
100
AcDbLine
 10
-202.286776002366
 20
-1032.703509760599
 11
-202.686776002365
 21
-1032.303509760599
  0
LINE
  5
2D3
100
AcDbEntity
  8
1
  6
CENTER_DASH_DASH
 62
           2
100
AcDbLine
 10
-202.686776002365
 20
-1032.303509760599
 11
-202.686776002365
 21
-1029.103509760599
  0
LINE
  5
2D2
100
AcDbEntity
  8
1
  6
CENTER_DASH_DASH
 62
           2
100
AcDbLine
 10
-196.686776002365
 20
-1032.303509760599
 11
-202.686776002365
 21
-1032.303509760599
  0
LINE
  5
2D1
100
AcDbEntity
  8
1
  6
CENTER_DASH_DASH
 62
           2
100
AcDbLine
 10
-202.686776002365
 20
-1029.103509760599
 11
-196.686776002365
 21
-1029.103509760599
  0
LINE
  5
2D0
100
AcDbEntity
  8
1
  6
CENTER_DASH_DASH
 62
           2
100
AcDbLine
 10
-196.686776002365
 20
-1032.703509760599
 11
-202.286776002366
 21
-1032.703509760599
  0
LINE
  5
2CF
100
AcDbEntity
  8
1
  6
CENTER_DASH_DASH
 62
           2
100
AcDbLine
 10
-202.286776002365
 20
-1028.703509760599
 11
-196.686776002365
 21
-1028.703509760599
  0
LINE
  5
2CE
100
AcDbEntity
  8
1
  6
DOT_CENTER
 62
           1
100
AcDbLine
 10
-192.016697337112
 20
-1030.7035097606
 11
-204.285272005037
 21
-1030.703509760599
  0
ENDBLK
  5
2E1
100
AcDbEntity
  8
0
100
AcDbBlockEnd
  0
BLOCK
  5
83
100
AcDbEntity
  8
0
100
AcDbBlockBegin
  2
M04_____MI__15
 70
           0
 10
0.0
 20
0.0
 30
0.0
  3
M04_____MI__15
  1

  0
ARC
  5
2F4
100
AcDbEntity
  8
1
  6
CENTER_DASH_DASH
 62
           2
100
AcDbCircle
 10
-200.640109335699
 20
-1095.616843093934
 40
6.453915263019
100
AcDbArc
 50
-0.769421858322
 51
45.627759168972
  0
ARC
  5
2F3
100
AcDbEntity
  8
1
  6
CENTER_DASH_DASH
 62
           2
100
AcDbCircle
 10
-200.640109335699
 20
-1095.790176427267
 40
6.453915263018
100
AcDbArc
 50
-45.627759168967
 51
0.769421858332
  0
LINE
  5
2F2
100
AcDbEntity
  8
1
  6
DOT_CENTER
 62
           1
100
AcDbLine
 10
-192.016697337112
 20
-1095.703509760601
 11
-204.285272005037
 21
-1095.7035097606
  0
LINE
  5
2F1
100
AcDbEntity
  8
1
  6
CENTER_DASH_DASH
 62
           2
100
AcDbLine
 10
-202.286776002365
 20
-1093.7035097606
 11
-196.686776002365
 21
-1093.703509760601
  0
LINE
  5
2F0
100
AcDbEntity
  8
1
  6
CENTER_DASH_DASH
 62
           2
100
AcDbLine
 10
-196.686776002365
 20
-1097.7035097606
 11
-202.286776002366
 21
-1097.7035097606
  0
LINE
  5
2EF
100
AcDbEntity
  8
1
  6
CENTER_DASH_DASH
 62
           2
100
AcDbLine
 10
-202.686776002365
 20
-1094.1035097606
 11
-196.686776002365
 21
-1094.1035097606
  0
LINE
  5
2EE
100
AcDbEntity
  8
1
  6
CENTER_DASH_DASH
 62
           2
100
AcDbLine
 10
-196.686776002365
 20
-1097.3035097606
 11
-202.686776002365
 21
-1097.3035097606
  0
LINE
  5
2ED
100
AcDbEntity
  8
1
  6
CENTER_DASH_DASH
 62
           2
100
AcDbLine
 10
-202.686776002365
 20
-1097.3035097606
 11
-202.686776002365
 21
-1094.1035097606
  0
LINE
  5
2EC
100
AcDbEntity
  8
1
  6
CENTER_DASH_DASH
 62
           2
100
AcDbLine
 10
-202.286776002366
 20
-1097.7035097606
 11
-202.686776002365
 21
-1097.3035097606
  0
LINE
  5
2EB
100
AcDbEntity
  8
1
  6
CENTER_DASH_DASH
 62
           2
100
AcDbLine
 10
-202.286776002365
 20
-1093.7035097606
 11
-202.686776002365
 21
-1094.1035097606
  0
LINE
  5
2EA
100
AcDbEntity
  8
1
  6
CENTER_DASH_DASH
 62
           2
100
AcDbLine
 10
-202.286776002366
 20
-1097.7035097606
 11
-202.286776002365
 21
-1093.7035097606
  0
LINE
  5
2E9
100
AcDbEntity
  8
1
  6
CENTER_DASH_DASH
 62
           4
100
AcDbLine
 10
-196.197269178316
 20
-1094.458529879906
 11
-196.686776002365
 21
-1095.703509760601
  0
LINE
  5
2E8
100
AcDbEntity
  8
1
  6
CENTER_DASH_DASH
 62
           4
100
AcDbLine
 10
-196.197269178316
 20
-1096.948489641295
 11
-194.525661488382
 21
-1097.664118967059
  0
LINE
  5
2E7
100
AcDbEntity
  8
1
  6
CENTER_DASH_DASH
 62
           4
100
AcDbLine
 10
-196.686776002365
 20
-1095.703509760601
 11
-196.197269178316
 21
-1096.948489641295
  0
LINE
  5
2E6
100
AcDbEntity
  8
1
  6
CENTER_DASH_DASH
 62
           2
100
AcDbLine
 10
-196.126776002366
 20
-1091.0035097606
 11
-196.686776002365
 21
-1091.149584845925
  0
LINE
  5
2E5
100
AcDbEntity
  8
1
  6
CENTER_DASH_DASH
 62
           2
100
AcDbLine
 10
-196.126776002366
 20
-1091.0035097606
 11
-196.126776002366
 21
-1100.4035097606
  0
LINE
  5
2E4
100
AcDbEntity
  8
1
  6
CENTER_DASH_DASH
 62
           2
100
AcDbLine
 10
-196.686776002365
 20
-1100.257434675276
 11
-196.126776002366
 21
-1100.4035097606
  0
LINE
  5
2E3
100
AcDbEntity
  8
1
  6
CENTER_DASH_DASH
 62
           4
100
AcDbLine
 10
-194.525661488382
 20
-1093.742900554141
 11
-196.197269178316
 21
-1094.458529879906
  0
LINE
  5
2E2
100
AcDbEntity
  8
1
  6
CENTER_DASH_DASH
 62
           2
100
AcDbLine
 10
-196.686776002365
 20
-1091.149584845925
 11
-196.686776002365
 21
-1100.257434675276
  0
ENDBLK
  5
2F5
100
AcDbEntity
  8
0
100
AcDbBlockEnd
  0
BLOCK
  5
85
100
AcDbEntity
  8
0
100
AcDbBlockBegin
  2
_X___X__16
 70
           0
 10
0.0
 20
0.0
 30
0.0
  3
_X___X__16
  1

  0
ARC
  5
340
100
AcDbEntity
  8
1
  6
CONTINUOUS
 62
           7
100
AcDbCircle
 10
-192.186776002365
 20
-1049.2035097606
 40
1.0
100
AcDbArc
 50
-90.0
 51
0.0
  0
ARC
  5
33F
100
AcDbEntity
  8
1
  6
CONTINUOUS
 62
           7
100
AcDbCircle
 10
-156.966776002375
 20
-1063.0035097606
 40
0.719999999999
100
AcDbArc
 50
180.0
 51
-100.388857815318
  0
ARC
  5
33E
100
AcDbEntity
  8
1
  6
CONTINUOUS
 62
           7
100
AcDbCircle
 10
-156.966776002374
 20
-1065.403509760599
 40
0.72
100
AcDbArc
 50
100.388857815502
 51
-179.999999999927
  0
ARC
  5
33D
100
AcDbEntity
  8
1
  6
CONTINUOUS
 62
           7
100
AcDbCircle
 10
-171.686776002373
 20
-1077.7035097606
 40
1.0
100
AcDbArc
 50
180.0
 51
-89.999999999948
  0
ARC
  5
33C
100
AcDbEntity
  8
1
  6
CONTINUOUS
 62
           7
100
AcDbCircle
 10
-158.686776002374
 20
-1050.7035097606
 40
1.0
100
AcDbArc
 50
0.0
 51
90.0
  0
ARC
  5
33B
100
AcDbEntity
  8
1
  6
CONTINUOUS
 62
           7
100
AcDbCircle
 10
-171.686776002373
 20
-1050.7035097606
 40
1.0
100
AcDbArc
 50
90.0
 51
180.0
  0
ARC
  5
33A
100
AcDbEntity
  8
1
  6
CONTINUOUS
 62
           7
100
AcDbCircle
 10
-158.686776002374
 20
-1077.7035097606
 40
0.999999999999
100
AcDbArc
 50
-89.999999999948
 51
0.0
  0
ARC
  5
339
100
AcDbEntity
  8
1
  6
CONTINUOUS
 62
           7
100
AcDbCircle
 10
-194.236776002368
 20
-1050.053509760599
 40
0.35
100
AcDbArc
 50
-155.429168273641
 51
-155.066146889563
  0
ARC
  5
338
100
AcDbEntity
  8
1
  6
CONTINUOUS
 62
           7
100
AcDbCircle
 10
-165.186776002374
 20
-1095.7035097606
 40
18.0
100
AcDbArc
 50
70.811863546278
 51
109.18813645372
  0
ARC
  5
337
100
AcDbEntity
  8
1
  6
CONTINUOUS
 62
           7
100
AcDbCircle
 10
-165.186776002374
 20
-1032.7035097606
 40
18.0
100
AcDbArc
 50
-109.18813645372
 51
-70.811863546274
  0
ARC
  5
336
100
AcDbEntity
  8
1
  6
CONTINUOUS
 62
           7
100
AcDbCircle
 10
-157.186776002374
 20
-1064.2035097606
 40
0.5
100
AcDbArc
 50
-79.611142184582
 51
79.611142184465
  0
LINE
  5
335
100
AcDbEntity
  8
1
  6
CONTINUOUS
 62
           7
100
AcDbLine
 10
-197.186776002365
 20
-1050.2035097606
 11
-197.186776002365
 21
-1050.7035097606
  0
LINE
  5
334
100
AcDbEntity
  8
1
  6
CONTINUOUS
 62
           7
100
AcDbLine
 10
-193.886776002369
 20
-1050.205640724046
 11
-193.886776002369
 21
-1037.703509760599
  0
LINE
  5
333
100
AcDbEntity
  8
1
  6
CONTINUOUS
 62
           7
100
AcDbLine
 10
-196.686776002373
 20
-1050.2035097606
 11
-196.686776002363
 21
-1039.2035097606
  0
LINE
  5
332
100
AcDbEntity
  8
1
  6
CONTINUOUS
 62
           7
100
AcDbLine
 10
-193.886776002366
 20
-1040.353509760599
 11
-193.886776002369
 21
-1040.7035097606
  0
LINE
  5
331
100
AcDbEntity
  8
1
  6
CONTINUOUS
 62
           7
100
AcDbLine
 10
-196.686776002365
 20
-1038.5535097606
 11
-196.686776002363
 21
-1050.2035097606
  0
LINE
  5
330
100
AcDbEntity
  8
1
  6
CONTINUOUS
 62
           7
100
AcDbLine
 10
-193.886776002369
 20
-1049.7035097606
 11
-193.886776002369
 21
-1050.053509760599
  0
LINE
  5
32F
100
AcDbEntity
  8
1
  6
CONTINUOUS
 62
           7
100
AcDbLine
 10
-193.909755065295
 20
-1040.7035097606
 11
-193.886776002369
 21
-1040.7035097606
  0
LINE
  5
32E
100
AcDbEntity
  8
1
  6
CONTINUOUS
 62
           7
100
AcDbLine
 10
-196.686776002365
 20
-1020.7035097606
 11
-196.686776002365
 21
-1050.7035097606
  0
LINE
  5
32D
100
AcDbEntity
  8
1
  6
CONTINUOUS
 62
           7
100
AcDbLine
 10
-192.486776002365
 20
-1050.7035097606
 11
-192.486776002365
 21
-1105.7035097606
  0
LINE
  5
32C
100
AcDbEntity
  8
1
  6
CONTINUOUS
 62
           7
100
AcDbLine
 10
-192.486776002365
 20
-1105.7035097606
 11
-198.686776002365
 21
-1105.7035097606
  0
LINE
  5
32B
100
AcDbEntity
  8
1
  6
CONTINUOUS
 62
           7
100
AcDbLine
 10
-198.686776002365
 20
-1105.7035097606
 11
-198.686776002365
 21
-1020.7035097606
  0
LINE
  5
32A
100
AcDbEntity
  8
1
  6
CONTINUOUS
 62
           7
100
AcDbLine
 10
-198.686776002365
 20
-1050.7035097606
 11
-192.486776002365
 21
-1050.7035097606
  0
LINE
  5
329
100
AcDbEntity
  8
1
  6
CONTINUOUS
 62
           7
100
AcDbLine
 10
-193.686776002365
 20
-1037.703509760599
 11
-193.686776002365
 21
-1020.7035097606
  0
LINE
  5
328
100
AcDbEntity
  8
1
  6
CONTINUOUS
 62
           7
100
AcDbLine
 10
-193.686776002365
 20
-1020.7035097606
 11
-198.686776002365
 21
-1020.7035097606
  0
LINE
  5
327
100
AcDbEntity
  8
1
  6
CONTINUOUS
 62
           7
100
AcDbLine
 10
-189.786776002365
 20
-1076.2535097606
 11
-189.786776002365
 21
-1076.203509760601
  0
LINE
  5
326
100
AcDbEntity
  8
1
  6
CONTINUOUS
 62
           7
100
AcDbLine
 10
-189.186776002365
 20
-1106.7035097606
 11
-189.186776002365
 21
-1076.203509760601
  0
LINE
  5
325
100
AcDbEntity
  8
1
  6
CONTINUOUS
 62
           7
100
AcDbLine
 10
-190.586776002365
 20
-1076.2535097606
 11
-190.586776002365
 21
-1076.2035097606
  0
LINE
  5
324
100
AcDbEntity
  8
1
  6
CONTINUOUS
 62
           7
100
AcDbLine
 10
-190.186776002365
 20
-1076.2535097606
 11
-190.186776002365
 21
-1076.2035097606
  0
LINE
  5
323
100
AcDbEntity
  8
1
  6
CONTINUOUS
 62
           7
100
AcDbLine
 10
-189.186776002365
 20
-1052.203509760601
 11
-189.186776002365
 21
-1004.7035097606
  0
LINE
  5
322
100
AcDbEntity
  8
1
  6
CONTINUOUS
 62
           7
100
AcDbLine
 10
-197.186776002365
 20
-1106.7035097606
 11
-189.186776002365
 21
-1106.7035097606
  0
LINE
  5
321
100
AcDbEntity
  8
1
  6
CONTINUOUS
 62
           7
100
AcDbLine
 10
-197.186776002365
 20
-1105.7035097606
 11
-197.186776002365
 21
-1106.7035097606
  0
LINE
  5
320
100
AcDbEntity
  8
1
  6
CONTINUOUS
 62
           7
100
AcDbLine
 10
-192.186776002365
 20
-1050.2035097606
 11
-197.186776002365
 21
-1050.2035097606
  0
LINE
  5
31F
100
AcDbEntity
  8
1
  6
CONTINUOUS
 62
           7
100
AcDbLine
 10
-191.186776002365
 20
-1004.7035097606
 11
-191.186776002365
 21
-1049.2035097606
  0
LINE
  5
31E
100
AcDbEntity
  8
1
  6
CONTINUOUS
 62
           7
100
AcDbLine
 10
-189.186776002365
 20
-1004.7035097606
 11
-191.186776002365
 21
-1004.7035097606
  0
LINE
  5
31D
100
AcDbEntity
  8
1
  6
CONTINUOUS
 62
           7
100
AcDbLine
 10
-190.586776002365
 20
-1052.1535097606
 11
-189.186776002365
 21
-1052.1535097606
  0
LINE
  5
31C
100
AcDbEntity
  8
1
  6
CONTINUOUS
 62
           7
100
AcDbLine
 10
-190.586776002365
 20
-1052.2035097606
 11
-190.586776002365
 21
-1052.1535097606
  0
LINE
  5
31B
100
AcDbEntity
  8
1
  6
CONTINUOUS
 62
           7
100
AcDbLine
 10
-189.186776002365
 20
-1076.2535097606
 11
-190.586776002365
 21
-1076.2535097606
  0
LINE
  5
31A
100
AcDbEntity
  8
1
  6
DOT_CENTER
 62
           1
100
AcDbLine
 10
-156.686776002374
 20
-1064.2035097606
 11
-154.799998178513
 21
-1064.2035097606
  0
LINE
  5
319
100
AcDbEntity
  8
1
  6
CONTINUOUS
 62
           7
100
AcDbLine
 10
-192.486776002365
 20
-1050.2035097606
 11
-192.486776002365
 21
-1106.7035097606
  0
LINE
  5
318
100
AcDbEntity
  8
1
  6
DOT_CENTER
 62
           4
100
AcDbLine
 10
-192.186776002365
 20
-1015.7035097606
 11
-188.186776002365
 21
-1015.7035097606
  0
LINE
  5
317
100
AcDbEntity
  8
1
  6
CONTINUOUS
 62
           7
100
AcDbLine
 10
-189.786776002365
 20
-1052.203509760601
 11
-189.786776002365
 21
-1052.1535097606
  0
LINE
  5
316
100
AcDbEntity
  8
1
  6
CONTINUOUS
 62
           7
100
AcDbLine
 10
-190.186776002365
 20
-1052.2035097606
 11
-190.186776002365
 21
-1052.1535097606
  0
LINE
  5
315
100
AcDbEntity
  8
1
  6
CONTINUOUS
 62
           7
100
AcDbLine
 10
-190.586776002365
 20
-1052.2035097606
 11
-190.586776002365
 21
-1076.2035097606
  0
LINE
  5
314
100
AcDbEntity
  8
1
  6
CONTINUOUS
 62
           7
100
AcDbLine
 10
-190.586776002365
 20
-1052.2035097606
 11
-172.686776002372
 21
-1052.203509760601
  0
LINE
  5
313
100
AcDbEntity
  8
1
  6
CONTINUOUS
 62
           7
100
AcDbLine
 10
-190.586776002365
 20
-1076.2035097606
 11
-172.686776002372
 21
-1076.203509760601
  0
LINE
  5
312
100
AcDbEntity
  8
1
  6
CONTINUOUS
 62
           7
100
AcDbLine
 10
-191.38677600237
 20
-1039.164356007182
 11
-191.386776002368
 21
-1049.803509760604
  0
LINE
  5
311
100
AcDbEntity
  8
1
  6
CONTINUOUS
 62
           7
100
AcDbLine
 10
-191.38677600237
 20
-1023.339296198227
 11
-191.38677600237
 21
-1036.242663514018
  0
LINE
  5
310
100
AcDbEntity
  8
1
  6
CONTINUOUS
 62
           7
100
AcDbLine
 10
-191.38677600237
 20
-1036.242663514018
 11
-191.38677600237
 21
-1039.164356007182
  0
LINE
  5
30F
100
AcDbEntity
  8
1
  6
CONTINUOUS
 62
           7
100
AcDbLine
 10
-193.286776002369
 20
-1050.205640724045
 11
-193.286776002369
 21
-1039.771462788368
  0
LINE
  5
30E
100
AcDbEntity
  8
1
  6
CONTINUOUS
 62
           7
100
AcDbLine
 10
-191.38677600237
 20
-1020.7035097606
 11
-191.38677600237
 21
-1023.339296198227
  0
LINE
  5
30D
100
AcDbEntity
  8
1
  6
CONTINUOUS
 62
           7
100
AcDbLine
 10
-192.88677600237
 20
-1050.2035097606
 11
-192.88677600237
 21
-1020.7035097606
  0
LINE
  5
30C
100
AcDbEntity
  8
1
  6
CONTINUOUS
 62
           7
100
AcDbLine
 10
-192.88677600237
 20
-1020.7035097606
 11
-191.38677600237
 21
-1020.7035097606
  0
LINE
  5
30B
100
AcDbEntity
  8
1
  6
DOT_CENTER
 62
           4
100
AcDbLine
 10
-165.186776002373
 20
-1047.270827022919
 11
-165.186776002374
 21
-1080.622071900588
  0
LINE
  5
30A
100
AcDbEntity
  8
1
  6
CONTINUOUS
 62
           7
100
AcDbLine
 10
-162.936776002371
 20
-1070.703509760599
 11
-165.186776002373
 21
-1075.203509760599
  0
LINE
  5
309
100
AcDbEntity
  8
1
  6
CONTINUOUS
 62
           7
100
AcDbLine
 10
-165.186776002373
 20
-1075.203509760599
 11
-167.43677600237
 21
-1070.703509760599
  0
LINE
  5
308
100
AcDbEntity
  8
1
  6
CONTINUOUS
 62
           7
100
AcDbLine
 10
-167.43677600237
 20
-1070.703509760599
 11
-162.936776002371
 21
-1070.703509760599
  0
LINE
  5
307
100
AcDbEntity
  8
1
  6
CONTINUOUS
 62
           7
100
AcDbLine
 10
-172.686776002373
 20
-1077.7035097606
 11
-172.686776002373
 21
-1050.7035097606
  0
LINE
  5
306
100
AcDbEntity
  8
1
  6
CONTINUOUS
 62
           7
100
AcDbLine
 10
-159.270696219274
 20
-1078.7035097606
 11
-158.686776002373
 21
-1078.703509760599
  0
LINE
  5
305
100
AcDbEntity
  8
1
  6
CONTINUOUS
 62
           7
100
AcDbLine
 10
-171.613068988476
 20
-1078.7035097606
 11
-171.686776002372
 21
-1078.703509760599
  0
LINE
  5
304
100
AcDbEntity
  8
1
  6
CONTINUOUS
 62
           7
100
AcDbLine
 10
-171.686776002372
 20
-1078.703509760599
 11
-171.102855785473
 21
-1078.7035097606
  0
LINE
  5
303
100
AcDbEntity
  8
1
  6
CONTINUOUS
 62
           7
100
AcDbLine
 10
-171.686776002373
 20
-1049.7035097606
 11
-171.102855785473
 21
-1049.7035097606
  0
LINE
  5
302
100
AcDbEntity
  8
1
  6
CONTINUOUS
 62
           7
100
AcDbLine
 10
-172.686776002373
 20
-1077.7035097606
 11
-172.686776002373
 21
-1050.7035097606
  0
LINE
  5
301
100
AcDbEntity
  8
1
  6
CONTINUOUS
 62
           7
100
AcDbLine
 10
-157.686776002374
 20
-1050.7035097606
 11
-157.686776002374
 21
-1063.0035097606
  0
LINE
  5
300
100
AcDbEntity
  8
1
  6
CONTINUOUS
 62
           7
100
AcDbLine
 10
-157.686776002374
 20
-1063.0035097606
 11
-172.686776002373
 21
-1063.0035097606
  0
LINE
  5
2FF
100
AcDbEntity
  8
1
  6
CONTINUOUS
 62
           7
100
AcDbLine
 10
-157.686776002374
 20
-1065.4035097606
 11
-172.686776002372
 21
-1065.403509760599
  0
LINE
  5
2FE
100
AcDbEntity
  8
1
  6
CONTINUOUS
 62
           7
100
AcDbLine
 10
-157.686776002374
 20
-1065.4035097606
 11
-157.686776002374
 21
-1077.7035097606
  0
LINE
  5
2FD
100
AcDbEntity
  8
1
  6
CONTINUOUS
 62
           7
100
AcDbLine
 10
-159.270696219273
 20
-1049.703509760599
 11
-158.686776002374
 21
-1049.7035097606
  0
LINE
  5
2FC
100
AcDbEntity
  8
1
  6
CONTINUOUS
 62
           7
100
AcDbLine
 10
-165.186776002373
 20
-1053.203509760601
 11
-162.936776002371
 21
-1057.7035097606
  0
LINE
  5
2FB
100
AcDbEntity
  8
1
  6
CONTINUOUS
 62
           7
100
AcDbLine
 10
-167.43677600237
 20
-1057.703509760599
 11
-165.186776002373
 21
-1053.203509760601
  0
LINE
  5
2FA
100
AcDbEntity
  8
1
  6
CONTINUOUS
 62
           7
100
AcDbLine
 10
-162.936776002371
 20
-1057.7035097606
 11
-167.43677600237
 21
-1057.703509760599
  0
LINE
  5
2F9
100
AcDbEntity
  8
1
  6
CONTINUOUS
 62
           7
100
AcDbLine
 10
-193.286776002368
 20
-1037.703509760599
 11
-193.286776002369
 21
-1050.205640724045
  0
LINE
  5
2F8
100
AcDbEntity
  8
1
  6
CONTINUOUS
 62
           7
100
AcDbLine
 10
-193.886776002369
 20
-1037.703509760599
 11
-193.286776002368
 21
-1037.703509760599
  0
LINE
  5
2F7
100
AcDbEntity
  8
1
  6
DOT_CENTER
 62
           1
100
AcDbLine
 10
-186.667133501969
 20
-1045.2035097606
 11
-200.573354080769
 21
-1045.2035097606
  0
LINE
  5
2F6
100
AcDbEntity
  8
1
  6
DOT_CENTER
 62
           1
100
AcDbLine
 10
-200.951897975904
 20
-1064.2035097606
 11
-156.686776002374
 21
-1064.2035097606
  0
INSERT
  5
86
100
AcDbEntity
  8
0
100
AcDbBlockReference
  2
M04_____MI__14
 10
0.0
 20
0.0
  0
INSERT
  5
87
100
AcDbEntity
  8
0
100
AcDbBlockReference
  2
M04_____MI__15
 10
0.0
 20
0.0
  0
ENDBLK
  5
341
100
AcDbEntity
  8
0
100
AcDbBlockEnd
  0
BLOCK
  5
89
100
AcDbEntity
  8
0
100
AcDbBlockBegin
  2
A__17
 70
           0
 10
0.0
 20
0.0
 30
0.0
  3
A__17
  1

  0
MTEXT
  5
38A
100
AcDbEntity
  8
1
 62
           3
100
AcDbMText
 10
-70.377900675029
 20
-1102.574598214082
 30
0.0
 40
3.0
 41
0.0
 71
           5
 72
           1
  1
2
  7
CONVERTER_2
  0
MTEXT
  5
388
100
AcDbEntity
  8
1
 62
           3
100
AcDbMText
 10
-70.377900675029
 20
-1098.874598214082
 30
0.0
 40
3.0
 41
0.0
 71
           5
 72
           1
  1
用
  7
CONVERTER_1
  0
MTEXT
  5
387
100
AcDbEntity
  8
1
 62
           3
100
AcDbMText
 10
-70.377900675029
 20
-1095.174598214082
 30
0.0
 40
3.0
 41
0.0
 71
           5
 72
           1
  1
元
  7
CONVERTER_1
  0
MTEXT
  5
386
100
AcDbEntity
  8
1
 62
           3
100
AcDbMText
 10
-70.377900675029
 20
-1091.474598214082
 30
0.0
 40
3.0
 41
0.0
 71
           5
 72
           1
  1
吊
  7
CONVERTER_1
  0
MTEXT
  5
385
100
AcDbEntity
  8
1
 62
           3
100
AcDbMText
 10
-70.377900675029
 20
-1087.774598214082
 30
0.0
 40
3.0
 41
0.0
 71
           5
 72
           1
  1
右
  7
CONVERTER_1
  0
MTEXT
  5
384
100
AcDbEntity
  8
1
 62
           3
100
AcDbMText
 10
-70.377900675029
 20
-1084.074598214082
 30
0.0
 40
3.0
 41
0.0
 71
           5
 72
           1
  1
観
  7
CONVERTER_1
  0
MTEXT
  5
383
100
AcDbEntity
  8
1
 62
           3
100
AcDbMText
 10
-70.377900675029
 20
-1080.374598214082
 30
0.0
 40
3.0
 41
0.0
 71
           5
 72
           1
  1
内
  7
CONVERTER_1
  0
ARC
  5
381
100
AcDbEntity
  8
1
  6
CONTINUOUS
 62
           7
100
AcDbCircle
 10
-43.277900674158
 20
-1104.7035097606
 40
2.0
100
AcDbArc
 50
-90.0
 51
0.0
  0
ARC
  5
380
100
AcDbEntity
  8
1
  6
CONTINUOUS
 62
           7
100
AcDbCircle
 10
-74.777900674158
 20
-1104.7035097606
 40
2.0
100
AcDbArc
 50
180.0
 51
-90.0
  0
ARC
  5
37F
100
AcDbEntity
  8
1
  6
CONTINUOUS
 62
           7
100
AcDbCircle
 10
-74.777900678969
 20
-1006.7035097606
 40
2.0
100
AcDbArc
 50
90.0
 51
-179.999999997192
  0
ARC
  5
37E
100
AcDbEntity
  8
1
  6
CONTINUOUS
 62
           7
100
AcDbCircle
 10
-43.277900681254
 20
-1006.7035097606
 40
2.0
100
AcDbArc
 50
0.000000004156
 51
90.0
  0
ARC
  5
37D
100
AcDbEntity
  8
1
  6
CONTINUOUS
 62
           7
100
AcDbCircle
 10
-87.897900674157
 20
-1065.403509760598
 40
0.720000000002
100
AcDbArc
 50
0.0
 51
79.61114218445
  0
ARC
  5
37C
100
AcDbEntity
  8
1
  6
CONTINUOUS
 62
           7
100
AcDbCircle
 10
-87.897900674157
 20
-1063.003509760599
 40
0.72
100
AcDbArc
 50
-79.611142184437
 51
-0.00000000009
  0
ARC
  5
37B
100
AcDbEntity
  8
1
  6
CONTINUOUS
 62
           7
100
AcDbCircle
 10
-75.177900674156
 20
-1077.703509760598
 40
1.000000000001
100
AcDbArc
 50
-89.999999999948
 51
0.000000000065
  0
ARC
  5
37A
100
AcDbEntity
  8
1
  6
CONTINUOUS
 62
           7
100
AcDbCircle
 10
-86.177900674155
 20
-1077.703509760597
 40
1.000000000001
100
AcDbArc
 50
-179.999999999934
 51
-90.0
  0
ARC
  5
379
100
AcDbEntity
  8
1
  6
CONTINUOUS
 62
           7
100
AcDbCircle
 10
-75.177900674155
 20
-1050.703509760598
 40
1.0
100
AcDbArc
 50
0.0
 51
90.000000000052
  0
ARC
  5
378
100
AcDbEntity
  8
1
  6
CONTINUOUS
 62
           7
100
AcDbCircle
 10
-86.177900674155
 20
-1050.703509760598
 40
0.999999999998
100
AcDbArc
 50
90.000000000052
 51
180.0
  0
CIRCLE
  5
377
100
AcDbEntity
  8
1
  6
CONTINUOUS
 62
           7
100
AcDbCircle
 10
-58.277900674158
 20
-1095.7035097606
 40
5.75
  0
CIRCLE
  5
376
100
AcDbEntity
  8
1
  6
CONTINUOUS
 62
           7
100
AcDbCircle
 10
-70.777900674159
 20
-1071.7035097606
 40
2.5
  0
CIRCLE
  5
375
100
AcDbEntity
  8
1
  6
CONTINUOUS
 62
           7
100
AcDbCircle
 10
-70.777900674159
 20
-1056.7035097606
 40
2.499999999999
  0
ARC
  5
374
100
AcDbEntity
  8
1
  6
CONTINUOUS
 62
           7
100
AcDbCircle
 10
-58.277900674158
 20
-1015.7035097606
 40
5.749999999933
100
AcDbArc
 50
-164.350044077648
 51
34.201251747579
  0
ARC
  5
373
100
AcDbEntity
  8
1
  6
CONTINUOUS
 62
           7
100
AcDbCircle
 10
-58.277900674158
 20
-1015.7035097606
 40
5.749999999922
100
AcDbArc
 50
34.201251747579
 51
-164.350044077648
  0
ARC
  5
372
100
AcDbEntity
  8
1
  6
DASHED
 62
           2
100
AcDbCircle
 10
-58.277900674158
 20
-1033.2035097606
 40
2.6
100
AcDbArc
 50
180.0
 51
0.0
  0
ARC
  5
371
100
AcDbEntity
  8
1
  6
DASHED
 62
           2
100
AcDbCircle
 10
-58.277900674158
 20
-1028.2035097606
 40
2.600000000001
100
AcDbArc
 50
0.0
 51
180.0
  0
ARC
  5
370
100
AcDbEntity
  8
1
  6
DASHED
 62
           2
100
AcDbCircle
 10
-58.277900674158
 20
-1098.2035097606
 40
2.6
100
AcDbArc
 50
180.0
 51
0.0
  0
ARC
  5
36F
100
AcDbEntity
  8
1
  6
DASHED
 62
           2
100
AcDbCircle
 10
-58.277900674158
 20
-1093.2035097606
 40
2.600000000001
100
AcDbArc
 50
0.0
 51
180.0
  0
ARC
  5
36E
100
AcDbEntity
  8
1
  6
CONTINUOUS
 62
           7
100
AcDbCircle
 10
-87.677900674156
 20
-1064.203509760598
 40
0.5
100
AcDbArc
 50
100.388857815459
 51
-100.388857815464
  0
LINE
  5
36D
100
AcDbEntity
  8
1
  6
CONTINUOUS
 62
           7
100
AcDbLine
 10
-76.777900676858
 20
-1049.7035097606
 11
-76.777900678969
 21
-1006.703509760698
  0
LINE
  5
36C
100
AcDbEntity
  8
1
  6
CONTINUOUS
 62
           7
100
AcDbLine
 10
-74.777900678969
 20
-1004.7035097606
 11
-43.277900681254
 21
-1004.7035097606
  0
LINE
  5
36B
100
AcDbEntity
  8
1
  6
CONTINUOUS
 62
           7
100
AcDbLine
 10
-43.277900674158
 20
-1106.7035097606
 11
-74.777900674158
 21
-1106.7035097606
  0
LINE
  5
36A
100
AcDbEntity
  8
1
  6
CONTINUOUS
 62
           7
100
AcDbLine
 10
-41.277900681254
 20
-1006.703509760455
 11
-41.277900674158
 21
-1104.7035097606
  0
LINE
  5
369
100
AcDbEntity
  8
1
  6
DOT_CENTER
 62
           1
100
AcDbLine
 10
-67.277900674158
 20
-1015.7035097606
 11
-49.277900674158
 21
-1015.7035097606
  0
LINE
  5
368
100
AcDbEntity
  8
1
  6
DOT_CENTER
 62
           1
100
AcDbLine
 10
-58.277900674158
 20
-1104.7035097606
 11
-58.277900674158
 21
-1006.7035097606
  0
LINE
  5
367
100
AcDbEntity
  8
1
  6
CONTINUOUS
 62
           7
100
AcDbLine
 10
-62.777900674158
 20
-1076.2535097606
 11
-62.777900674158
 21
-1052.1535097606
  0
LINE
  5
366
100
AcDbEntity
  8
1
  6
CONTINUOUS
 62
           7
100
AcDbLine
 10
-74.177900674155
 20
-1076.2535097606
 11
-62.777900674158
 21
-1076.2535097606
  0
LINE
  5
365
100
AcDbEntity
  8
1
  6
CONTINUOUS
 62
           7
100
AcDbLine
 10
-74.179151456384
 20
-1077.7535097606
 11
-65.477900674157
 21
-1077.7535097606
  0
LINE
  5
364
100
AcDbEntity
  8
1
  6
CONTINUOUS
 62
           7
100
AcDbLine
 10
-65.477900674157
 20
-1105.2035097606
 11
-75.277900674158
 21
-1105.2035097606
  0
LINE
  5
363
100
AcDbEntity
  8
1
  6
CONTINUOUS
 62
           7
100
AcDbLine
 10
-65.477900674157
 20
-1077.7535097606
 11
-65.477900674157
 21
-1105.2035097606
  0
LINE
  5
362
100
AcDbEntity
  8
1
  6
DOT_CENTER
 62
           1
100
AcDbLine
 10
-67.277900674158
 20
-1095.7035097606
 11
-49.277900674158
 21
-1095.7035097606
  0
LINE
  5
361
100
AcDbEntity
  8
1
  6
CONTINUOUS
 62
           7
100
AcDbLine
 10
-76.777900674158
 20
-1104.7035097606
 11
-76.777900675434
 21
-1078.703509760599
  0
LINE
  5
360
100
AcDbEntity
  8
1
  6
CONTINUOUS
 62
           7
100
AcDbLine
 10
-75.277900674158
 20
-1105.2035097606
 11
-75.277900674158
 21
-1078.703509760599
  0
LINE
  5
35F
100
AcDbEntity
  8
1
  6
CONTINUOUS
 62
           7
100
AcDbLine
 10
-62.777900674158
 20
-1052.1535097606
 11
-74.177900674155
 21
-1052.1535097606
  0
LINE
  5
35E
100
AcDbEntity
  8
1
  6
DOT_CENTER
 62
           1
100
AcDbLine
 10
-63.277900674158
 20
-1030.7035097606
 11
-53.277900674158
 21
-1030.7035097606
  0
LINE
  5
35D
100
AcDbEntity
  8
1
  6
DOT_CENTER
 62
           4
100
AcDbLine
 10
-63.277900674158
 20
-1028.2035097606
 11
-53.277900674158
 21
-1028.2035097606
  0
LINE
  5
35C
100
AcDbEntity
  8
1
  6
DOT_CENTER
 62
           4
100
AcDbLine
 10
-63.277900674158
 20
-1033.2035097606
 11
-53.277900674158
 21
-1033.2035097606
  0
LINE
  5
35B
100
AcDbEntity
  8
1
  6
DASHED
 62
           2
100
AcDbLine
 10
-60.877900674158
 20
-1028.2035097606
 11
-60.877900674158
 21
-1033.2035097606
  0
LINE
  5
35A
100
AcDbEntity
  8
1
  6
DASHED
 62
           2
100
AcDbLine
 10
-55.677900674157
 20
-1033.2035097606
 11
-55.677900674157
 21
-1028.2035097606
  0
LINE
  5
359
100
AcDbEntity
  8
1
  6
DOT_CENTER
 62
           4
100
AcDbLine
 10
-63.277900674158
 20
-1093.2035097606
 11
-53.277900674158
 21
-1093.2035097606
  0
LINE
  5
358
100
AcDbEntity
  8
1
  6
DOT_CENTER
 62
           4
100
AcDbLine
 10
-63.277900674158
 20
-1098.2035097606
 11
-53.277900674158
 21
-1098.2035097606
  0
LINE
  5
357
100
AcDbEntity
  8
1
  6
DASHED
 62
           2
100
AcDbLine
 10
-55.677900674157
 20
-1098.2035097606
 11
-55.677900674157
 21
-1093.2035097606
  0
LINE
  5
356
100
AcDbEntity
  8
1
  6
DASHED
 62
           2
100
AcDbLine
 10
-60.877900674158
 20
-1093.2035097606
 11
-60.877900674158
 21
-1098.2035097606
  0
LINE
  5
355
100
AcDbEntity
  8
1
  6
CONTINUOUS
 62
           7
100
AcDbLine
 10
-74.177900674155
 20
-1050.703509760598
 11
-74.177900674155
 21
-1077.703509760597
  0
LINE
  5
354
100
AcDbEntity
  8
1
  6
CONTINUOUS
 62
           7
100
AcDbLine
 10
-87.177900674155
 20
-1065.403509760598
 11
-74.177900674156
 21
-1065.403509760598
  0
LINE
  5
353
100
AcDbEntity
  8
1
  6
CONTINUOUS
 62
           7
100
AcDbLine
 10
-87.177900674155
 20
-1063.0035097606
 11
-74.177900674156
 21
-1063.003509760599
  0
LINE
  5
352
100
AcDbEntity
  8
1
  6
CONTINUOUS
 62
           7
100
AcDbLine
 10
-87.177900674156
 20
-1077.703509760598
 11
-87.177900674155
 21
-1065.403509760598
  0
LINE
  5
351
100
AcDbEntity
  8
1
  6
CONTINUOUS
 62
           7
100
AcDbLine
 10
-87.177900674155
 20
-1063.0035097606
 11
-87.177900674156
 21
-1050.703509760598
  0
LINE
  5
350
100
AcDbEntity
  8
1
  6
CONTINUOUS
 62
           7
100
AcDbLine
 10
-75.177900674155
 20
-1078.703509760599
 11
-86.177900674155
 21
-1078.703509760599
  0
LINE
  5
34F
100
AcDbEntity
  8
1
  6
CONTINUOUS
 62
           7
100
AcDbLine
 10
-86.177900674156
 20
-1049.7035097606
 11
-75.177900674156
 21
-1049.7035097606
  0
LINE
  5
34E
100
AcDbEntity
  8
1
  6
CONTINUOUS
 62
           7
100
AcDbLine
 10
-63.577900674158
 20
-1076.2035097606
 11
-62.777900674158
 21
-1076.2035097606
  0
LINE
  5
34D
100
AcDbEntity
  8
1
  6
CONTINUOUS
 62
           7
100
AcDbLine
 10
-63.577900674158
 20
-1076.2035097606
 11
-74.177900674156
 21
-1076.2035097606
  0
LINE
  5
34C
100
AcDbEntity
  8
1
  6
CONTINUOUS
 62
           7
100
AcDbLine
 10
-74.177900674156
 20
-1052.2035097606
 11
-63.577900674158
 21
-1052.2035097606
  0
LINE
  5
34B
100
AcDbEntity
  8
1
  6
CONTINUOUS
 62
           7
100
AcDbLine
 10
-62.777900674158
 20
-1052.2035097606
 11
-63.577900674158
 21
-1052.2035097606
  0
LINE
  5
34A
100
AcDbEntity
  8
1
  6
DASH_CENTER
 62
           4
100
AcDbLine
 10
-74.877900674157
 20
-1071.7035097606
 11
-66.677900674157
 21
-1071.7035097606
  0
LINE
  5
349
100
AcDbEntity
  8
1
  6
DASH_CENTER
 62
           4
100
AcDbLine
 10
-74.877900674157
 20
-1056.7035097606
 11
-66.677900674157
 21
-1056.7035097606
  0
LINE
  5
348
100
AcDbEntity
  8
1
  6
DOT_CENTER
 62
           1
100
AcDbLine
 10
-88.177900674156
 20
-1064.2035097606
 11
-60.177900674156
 21
-1064.2035097606
  0
LINE
  5
347
100
AcDbEntity
  8
1
  6
DOT_CENTER
 62
           4
100
AcDbLine
 10
-70.777900674159
 20
-1074.7035097606
 11
-70.777900674159
 21
-1052.7035097606
  0
LINE
  5
346
100
AcDbEntity
  8
1
  6
CONTINUOUS
 62
           7
100
AcDbLine
 10
-41.377900674158
 20
-1105.7035097606
 11
-41.277900674158
 21
-1105.7035097606
  0
LINE
  5
345
100
AcDbEntity
  8
1
  6
CONTINUOUS
 62
           7
100
AcDbLine
 10
-41.277900674158
 20
-1105.7035097606
 11
-41.277900674158
 21
-1104.7035097606
  0
LINE
  5
344
100
AcDbEntity
  8
1
  6
CONTINUOUS
 62
           7
100
AcDbLine
 10
-77.277900674158
 20
-1105.7035097606
 11
-76.509951481727
 21
-1105.7035097606
  0
LINE
  5
343
100
AcDbEntity
  8
1
  6
CONTINUOUS
 62
           7
100
AcDbLine
 10
-77.277900674158
 20
-1078.703509760599
 11
-77.277900674158
 21
-1105.7035097606
  0
LINE
  5
342
100
AcDbEntity
  8
1
  6
CONTINUOUS
 62
           4
100
AcDbLine
 10
-77.277900674158
 20
-1048.7035097606
 11
-77.277900674158
 21
-1049.7035097606
  0
ENDBLK
  5
38B
100
AcDbEntity
  8
0
100
AcDbBlockEnd
  0
BLOCK
  5
8B
100
AcDbEntity
  8
0
100
AcDbBlockBegin
  2
_S____18
 70
           0
 10
0.0
 20
0.0
 30
0.0
  3
_S____18
  1

  0
CIRCLE
  5
38F
100
AcDbEntity
  8
1
  6
CENTER_DASH_DASH
 62
           2
100
AcDbCircle
 10
-64.877900674158
 20
-1139.7035097606
 40
3.5
  0
CIRCLE
  5
38E
100
AcDbEntity
  8
1
  6
CENTER_DASH_DASH
 62
           2
100
AcDbCircle
 10
-64.877900674158
 20
-1139.7035097606
 40
5.5
  0
LINE
  5
38D
100
AcDbEntity
  8
1
  6
DOT_CENTER
 62
           1
100
AcDbLine
 10
-64.877900674158
 20
-1131.7035097606
 11
-64.877900674158
 21
-1147.7035097606
  0
LINE
  5
38C
100
AcDbEntity
  8
1
  6
DOT_CENTER
 62
           1
100
AcDbLine
 10
-72.877900674158
 20
-1139.7035097606
 11
-56.877900674158
 21
-1139.7035097606
  0
ENDBLK
  5
390
100
AcDbEntity
  8
0
100
AcDbBlockEnd
  0
BLOCK
  5
8D
100
AcDbEntity
  8
0
100
AcDbBlockBegin
  2
X_A______19
 70
           0
 10
0.0
 20
0.0
 30
0.0
  3
X_A______19
  1

  0
ARC
  5
3BC
100
AcDbEntity
  8
1
  6
CONTINUOUS
 62
           2
100
AcDbCircle
 10
-66.111150808899
 20
-1119.672074477407
 40
1.5
100
AcDbArc
 50
90.0
 51
144.149199793462
  0
ARC
  5
3BB
100
AcDbEntity
  8
1
  6
CONTINUOUS
 62
           7
100
AcDbCircle
 10
-68.377900674158
 20
-1107.698731356563
 40
5.0
100
AcDbArc
 50
-45.279953482196
 51
0.0
  0
ARC
  5
3BA
100
AcDbEntity
  8
1
  6
CONTINUOUS
 62
           7
100
AcDbCircle
 10
-58.127900674158
 20
-1139.526062881842
 40
3.0
100
AcDbArc
 50
180.0
 51
-134.123121062049
  0
ARC
  5
3B9
100
AcDbEntity
  8
1
  6
CONTINUOUS
 62
           7
100
AcDbCircle
 10
-65.127900674158
 20
-1142.886855934208
 40
3.5
100
AcDbArc
 50
180.0
 51
-121.965718750791
  0
ARC
  5
3B8
100
AcDbEntity
  8
1
  6
CONTINUOUS
 62
           7
100
AcDbCircle
 10
-70.127900674158
 20
-1135.7035097606
 40
1.5
100
AcDbArc
 50
0.0
 51
90.0
  0
ARC
  5
3B7
100
AcDbEntity
  8
1
  6
CONTINUOUS
 62
           7
100
AcDbCircle
 10
-59.627900674158
 20
-1135.7035097606
 40
1.5
100
AcDbArc
 50
90.0
 51
180.0
  0
ARC
  5
3B6
100
AcDbEntity
  8
1
  6
CONTINUOUS
 62
           7
100
AcDbCircle
 10
-61.377900674158
 20
-1138.743483565451
 40
20.0
100
AcDbArc
 50
-16.837472625676
 51
0.0
  0
CIRCLE
  5
3B5
100
AcDbEntity
  8
1
  6
CONTINUOUS
 62
           7
100
AcDbCircle
 10
-53.377900674158
 20
-1169.7035097606
 40
1.75
  0
CIRCLE
  5
3B4
100
AcDbEntity
  8
1
  6
CONTINUOUS
 62
           7
100
AcDbCircle
 10
-72.877900674158
 20
-1169.7035097606
 40
1.75
  0
ARC
  5
3B3
100
AcDbEntity
  8
1
  6
DOT_CENTER
 62
           4
100
AcDbCircle
 10
-71.877900674158
 20
-1153.7035097606
 40
13.0
100
AcDbArc
 50
-13.890001426699
 51
57.421029607195
  0
ARC
  5
3B2
100
AcDbEntity
  8
1
  6
CONTINUOUS
 62
           7
100
AcDbCircle
 10
-71.877900674158
 20
-1153.7035097606
 40
9.25
100
AcDbArc
 50
-13.890001426701
 51
58.034281249201
  0
ARC
  5
3B1
100
AcDbEntity
  8
1
  6
CONTINUOUS
 62
           7
100
AcDbCircle
 10
-68.377900674158
 20
-1193.7035097606
 40
3.75
100
AcDbArc
 50
166.109998573308
 51
-13.890001426712
  0
ARC
  5
3B0
100
AcDbEntity
  8
1
  6
CONTINUOUS
 62
           7
100
AcDbCircle
 10
-71.877900674158
 20
-1153.7035097606
 40
16.750000000001
100
AcDbArc
 50
-13.8900014267
 51
45.876878937939
  0
ARC
  5
3AF
100
AcDbEntity
  8
1
  6
CONTINUOUS
 62
           7
100
AcDbCircle
 10
-68.377900674158
 20
-1193.7035097606
 40
9.0
100
AcDbArc
 50
180.0
 51
-22.386255242977
  0
ARC
  5
3AE
100
AcDbEntity
  8
1
  6
CONTINUOUS
 62
           7
100
AcDbCircle
 10
-50.346893012613
 20
-1135.061403328374
 40
27.133651381217
100
AcDbArc
 50
135.655336032533
 51
175.014752742409
  0
ARC
  5
3AD
100
AcDbEntity
  8
1
  6
CONTINUOUS
 62
           7
100
AcDbCircle
 10
-68.377900674158
 20
-1193.7035097606
 40
5.6
100
AcDbArc
 50
34.070492244343
 51
118.149504902252
  0
LINE
  5
3AC
100
AcDbEntity
  8
1
  6
CONTINUOUS
 62
           7
100
AcDbLine
 10
-63.377900674158
 20
-1107.698731356563
 11
-63.377900674158
 21
-1106.7035097606
  0
LINE
  5
3AB
100
AcDbEntity
  8
1
  6
CONTINUOUS
 62
           2
100
AcDbLine
 10
-66.518921594849
 20
-1117.238728871204
 11
-65.095858832776
 21
-1113.538765689813
  0
LINE
  5
3AA
100
AcDbEntity
  8
1
  6
CONTINUOUS
 62
           2
100
AcDbLine
 10
-69.346199226894
 20
-1116.388552457824
 11
-67.283173103525
 21
-1117.879236197814
  0
LINE
  5
3A9
100
AcDbEntity
  8
1
  6
CONTINUOUS
 62
           7
100
AcDbLine
 10
-69.751471656261
 20
-1116.09571417823
 11
-64.85968391083
 21
-1111.251497997681
  0
LINE
  5
3A8
100
AcDbEntity
  8
1
  6
CONTINUOUS
 62
           2
100
AcDbLine
 10
-76.206547555785
 20
-1131.082420043133
 11
-67.326968097
 21
-1118.793559638627
  0
LINE
  5
3A7
100
AcDbEntity
  8
1
  6
CONTINUOUS
 62
           2
100
AcDbLine
 10
-66.111150808899
 20
-1118.172074477407
 11
-43.377900674158
 21
-1118.172074477407
  0
LINE
  5
3A6
100
AcDbEntity
  8
1
  6
CONTINUOUS
 62
           2
100
AcDbLine
 10
-64.377900674158
 20
-1111.672074477407
 11
-43.377900674158
 21
-1111.672074477407
  0
LINE
  5
3A5
100
AcDbEntity
  8
1
  6
DOT_CENTER
 62
           1
100
AcDbLine
 10
-52.377900674158
 20
-1113.17222791761
 11
-52.377900674158
 21
-1039.17222791761
  0
LINE
  5
3A4
100
AcDbEntity
  8
1
  6
DOT_CENTER
 62
           1
100
AcDbLine
 10
-80.377900674158
 20
-1193.7035097606
 11
-56.377900674158
 21
-1193.7035097606
  0
LINE
  5
3A3
100
AcDbEntity
  8
1
  6
DOT_CENTER
 62
           1
100
AcDbLine
 10
-68.377900674158
 20
-1205.7035097606
 11
-68.377900674158
 21
-1181.7035097606
  0
LINE
  5
3A2
100
AcDbEntity
  8
1
  6
DOT_CENTER
 62
           4
100
AcDbLine
 10
-68.377900674158
 20
-1193.7035097606
 11
-59.258041623418
 21
-1156.82427209366
  0
LINE
  5
3A1
100
AcDbEntity
  8
1
  6
DOT_CENTER
 62
           4
100
AcDbLine
 10
-64.877900674158
 20
-1142.749058610497
 11
-64.877900674158
 21
-1130.7035097606
  0
LINE
  5
3A0
100
AcDbEntity
  8
1
  6
CONTINUOUS
 62
           7
100
AcDbLine
 10
-68.627900674158
 20
-1135.7035097606
 11
-68.627900674158
 21
-1142.886855934208
  0
LINE
  5
39F
100
AcDbEntity
  8
1
  6
CONTINUOUS
 62
           7
100
AcDbLine
 10
-62.898385580362
 20
-1155.924052189893
 11
-72.018244631102
 21
-1192.803289856833
  0
LINE
  5
39E
100
AcDbEntity
  8
1
  6
CONTINUOUS
 62
           7
100
AcDbLine
 10
-64.737556717214
 20
-1194.603729664368
 11
-55.617697666473
 21
-1157.724491997428
  0
LINE
  5
39D
100
AcDbEntity
  8
1
  6
CONTINUOUS
 62
           7
100
AcDbLine
 10
-61.127900674158
 20
-1139.526062881842
 11
-61.127900674158
 21
-1135.7035097606
  0
LINE
  5
39C
100
AcDbEntity
  8
1
  6
CONTINUOUS
 62
           7
100
AcDbLine
 10
-71.877900674158
 20
-1134.2035097606
 11
-70.127900674158
 21
-1134.2035097606
  0
LINE
  5
39B
100
AcDbEntity
  8
1
  6
CONTINUOUS
 62
           7
100
AcDbLine
 10
-59.627900674158
 20
-1134.2035097606
 11
-57.877900674158
 21
-1134.2035097606
  0
LINE
  5
39A
100
AcDbEntity
  8
1
  6
CONTINUOUS
 62
           7
100
AcDbLine
 10
-71.877900674158
 20
-1134.2035097606
 11
-71.877900674158
 21
-1132.7035097606
  0
LINE
  5
399
100
AcDbEntity
  8
1
  6
CONTINUOUS
 62
           7
100
AcDbLine
 10
-57.877900674158
 20
-1134.2035097606
 11
-57.877900674158
 21
-1132.7035097606
  0
LINE
  5
398
100
AcDbEntity
  8
1
  6
CONTINUOUS
 62
           7
100
AcDbLine
 10
-77.377900674158
 20
-1132.7035097606
 11
-77.377900674158
 21
-1193.7035097606
  0
LINE
  5
397
100
AcDbEntity
  8
1
  6
CONTINUOUS
 62
           7
100
AcDbLine
 10
-60.056163871989
 20
-1197.13114693443
 11
-52.877900674158
 21
-1179.7035097606
  0
LINE
  5
396
100
AcDbEntity
  8
1
  6
CONTINUOUS
 62
           7
100
AcDbLine
 10
-52.877900674158
 20
-1179.7035097606
 11
-42.235295473663
 21
-1144.536640402443
  0
LINE
  5
395
100
AcDbEntity
  8
1
  6
CONTINUOUS
 62
           7
100
AcDbLine
 10
-41.377900674158
 20
-1138.743483565451
 11
-41.377900674158
 21
-1132.7035097606
  0
LINE
  5
394
100
AcDbEntity
  8
1
  6
CONTINUOUS
 62
           7
100
AcDbLine
 10
-77.377900674158
 20
-1132.7035097606
 11
-41.377900674158
 21
-1132.7035097606
  0
LINE
  5
393
100
AcDbEntity
  8
1
  6
CONTINUOUS
 62
           7
100
AcDbLine
 10
-41.377900674158
 20
-1105.32800956044
 11
-41.377900674158
 21
-1132.7035097606
  0
LINE
  5
392
100
AcDbEntity
  8
1
  6
DOT_CENTER
 62
           1
100
AcDbLine
 10
-59.960793298253
 20
-1045.2035097606
 11
-44.077900674158
 21
-1045.2035097606
  0
LINE
  5
391
100
AcDbEntity
  8
1
  6
CONTINUOUS
 62
           7
100
AcDbLine
 10
-61.052884420714
 20
-1179.7035097606
 11
-68.778802722018
 21
-1179.7035097606
  0
INSERT
  5
8E
100
AcDbEntity
  8
0
100
AcDbBlockReference
  2
_S____18
 10
0.0
 20
0.0
  0
ENDBLK
  5
3BD
100
AcDbEntity
  8
0
100
AcDbBlockEnd
  0
BLOCK
  5
90
100
AcDbEntity
  8
0
100
AcDbBlockBegin
  2
X_A______20
 70
           0
 10
0.0
 20
0.0
 30
0.0
  3
X_A______20
  1

  0
ARC
  5
3D4
100
AcDbEntity
  8
1
  6
CONTINUOUS
 62
           7
100
AcDbCircle
 10
-189.886776002373
 20
-1115.654276472568
 40
5.000000000002
100
AcDbArc
 50
145.246425268493
 51
-179.999999999976
  0
ARC
  5
3D3
100
AcDbEntity
  8
1
  6
CONTINUOUS
 62
           7
100
AcDbCircle
 10
-190.386776002378
 20
-1115.498092799921
 40
3.0
100
AcDbArc
 50
145.304846468762
 51
-179.999999999943
  0
ARC
  5
3D2
100
AcDbEntity
  8
1
  6
CONTINUOUS
 62
           7
100
AcDbCircle
 10
-190.38677600237
 20
-1134.2035097606
 40
1.5
100
AcDbArc
 50
0.0
 51
90.0
  0
ARC
  5
3D1
100
AcDbEntity
  8
1
  6
CONTINUOUS
 62
           7
100
AcDbCircle
 10
-195.88677600237
 20
-1132.7035097606
 40
1.5
100
AcDbArc
 50
180.0
 51
-90.0
  0
ARC
  5
3D0
100
AcDbEntity
  8
1
  6
CONTINUOUS
 62
           7
100
AcDbCircle
 10
-195.88677600237
 20
-1118.172074477407
 40
1.499999999999
100
AcDbArc
 50
145.30484646877
 51
180.0
  0
ARC
  5
3CF
100
AcDbEntity
  8
1
  6
CONTINUOUS
 62
           7
100
AcDbCircle
 10
-192.88677600237
 20
-1111.2035097606
 40
1.499999999999
100
AcDbArc
 50
-34.695153531241
 51
0.0
  0
ARC
  5
3CE
100
AcDbEntity
  8
1
  6
CONTINUOUS
 62
           7
100
AcDbCircle
 10
-224.886334310551
 20
-1120.212917913071
 40
29.999999999985
100
AcDbArc
 50
-23.558574976003
 51
0.31091180233
  0
ARC
  5
3CD
100
AcDbEntity
  8
1
  6
CONTINUOUS
 62
           7
100
AcDbCircle
 10
-223.386334310551
 20
-1120.212917913071
 40
29.999999999985
100
AcDbArc
 50
-23.558574976003
 51
0.31091180233
  0
LINE
  5
3CC
100
AcDbEntity
  8
1
  6
CONTINUOUS
 62
           7
100
AcDbLine
 10
-192.88677600237
 20
-1111.2035097606
 11
-192.88677600237
 21
-1106.7035097606
  0
LINE
  5
3CB
100
AcDbEntity
  8
1
  6
CONTINUOUS
 62
           7
100
AcDbLine
 10
-191.653487714905
 20
-1112.057324728845
 11
-192.853352577309
 21
-1113.79046286343
  0
LINE
  5
3CA
100
AcDbEntity
  8
1
  6
CONTINUOUS
 62
           7
100
AcDbLine
 10
-193.386776002378
 20
-1115.498092799924
 11
-193.386776002373
 21
-1120.375710153181
  0
LINE
  5
3C9
100
AcDbEntity
  8
1
  6
CONTINUOUS
 62
           7
100
AcDbLine
 10
-194.886776002373
 20
-1115.65427647257
 11
-194.886776002373
 21
-1120.375710153005
  0
LINE
  5
3C8
100
AcDbEntity
  8
1
  6
CONTINUOUS
 62
           7
100
AcDbLine
 10
-191.38677600237
 20
-1106.7035097606
 11
-191.38677600237
 21
-1111.2035097606
  0
LINE
  5
3C7
100
AcDbEntity
  8
1
  6
DOT_CENTER
 62
           4
100
AcDbLine
 10
-191.38677600237
 20
-1193.7035097606
 11
-187.88677600237
 21
-1193.7035097606
  0
LINE
  5
3C6
100
AcDbEntity
  8
1
  6
CONTINUOUS
 62
           7
100
AcDbLine
 10
-197.120064289835
 20
-1117.318259509162
 11
-192.88677600237
 21
-1111.2035097606
  0
LINE
  5
3C5
100
AcDbEntity
  8
1
  6
CONTINUOUS
 62
           7
100
AcDbLine
 10
-195.88677600237
 20
-1132.2035097606
 11
-195.88677600237
 21
-1132.7035097606
  0
LINE
  5
3C4
100
AcDbEntity
  8
1
  6
CONTINUOUS
 62
           7
100
AcDbLine
 10
-195.88677600237
 20
-1132.7035097606
 11
-190.38677600237
 21
-1132.7035097606
  0
LINE
  5
3C3
100
AcDbEntity
  8
1
  6
CONTINUOUS
 62
           7
100
AcDbLine
 10
-188.88677600237
 20
-1134.2035097606
 11
-188.88677600237
 21
-1202.7035097606
  0
LINE
  5
3C2
100
AcDbEntity
  8
1
  6
CONTINUOUS
 62
           7
100
AcDbLine
 10
-188.88677600237
 20
-1202.7035097606
 11
-190.38677600237
 21
-1202.7035097606
  0
LINE
  5
3C1
100
AcDbEntity
  8
1
  6
CONTINUOUS
 62
           7
100
AcDbLine
 10
-190.38677600237
 20
-1202.7035097606
 11
-190.38677600237
 21
-1134.2035097606
  0
LINE
  5
3C0
100
AcDbEntity
  8
1
  6
CONTINUOUS
 62
           7
100
AcDbLine
 10
-190.38677600237
 20
-1134.2035097606
 11
-195.88677600237
 21
-1134.2035097606
  0
LINE
  5
3BF
100
AcDbEntity
  8
1
  6
CONTINUOUS
 62
           7
100
AcDbLine
 10
-197.38677600237
 20
-1132.7035097606
 11
-197.38677600237
 21
-1118.172074477407
  0
LINE
  5
3BE
100
AcDbEntity
  8
1
  6
DOT_CENTER
 62
           4
100
AcDbLine
 10
-191.38677600237
 20
-1169.7035097606
 11
-187.88677600237
 21
-1169.7035097606
  0
ENDBLK
  5
3D5
100
AcDbEntity
  8
0
100
AcDbBlockEnd
  0
BLOCK
  5
92
100
AcDbEntity
  8
0
100
AcDbBlockBegin
  2
_G_E
 70
           0
 10
0.0
 20
0.0
 30
0.0
  3
_G_E
  1

  0
ARC
  5
407
100
AcDbEntity
  8
1
  6
CONTINUOUS
 62
           2
100
AcDbCircle
 10
46.159208628097
 20
-1037.009533665413
 40
0.2
100
AcDbArc
 50
0.0
 51
90.004953445903
  0
ARC
  5
406
100
AcDbEntity
  8
1
  6
CONTINUOUS
 62
           2
100
AcDbCircle
 10
50.559228628097
 20
-1037.009706191363
 40
0.2
100
AcDbArc
 50
90.0
 51
180.0
  0
ARC
  5
405
100
AcDbEntity
  8
1
  6
CONTINUOUS
 62
           2
100
AcDbCircle
 10
50.559228628097
 20
-1037.609706191363
 40
0.2
100
AcDbArc
 50
180.0
 51
-90.0
  0
ARC
  5
404
100
AcDbEntity
  8
1
  6
CONTINUOUS
 62
           2
100
AcDbCircle
 10
46.159208628097
 20
-1037.609696191363
 40
0.2
100
AcDbArc
 50
-90.0
 51
0.0
  0
ARC
  5
403
100
AcDbEntity
  8
1
  6
CONTINUOUS
 62
           2
100
AcDbCircle
 10
51.359198628097
 20
-1038.309706191363
 40
0.5
100
AcDbArc
 50
0.0
 51
90.0
  0
ARC
  5
402
100
AcDbEntity
  8
1
  6
CONTINUOUS
 62
           2
100
AcDbCircle
 10
45.359228628097
 20
-1038.309696191363
 40
0.5
100
AcDbArc
 50
90.0
 51
180.0
  0
ARC
  5
401
100
AcDbEntity
  8
1
  6
CONTINUOUS
 62
           2
100
AcDbCircle
 10
52.859211259662
 20
-1037.309706191363
 40
0.5
100
AcDbArc
 50
0.000301555937
 51
90.0
  0
ARC
  5
400
100
AcDbEntity
  8
1
  6
CONTINUOUS
 62
           2
100
AcDbCircle
 10
43.859218628097
 20
-1037.309732509723
 40
0.5
100
AcDbArc
 50
90.004953445667
 51
180.0
  0
ARC
  5
3FF
100
AcDbEntity
  8
1
  6
CONTINUOUS
 62
           2
100
AcDbCircle
 10
51.359198628097
 20
-1038.959706191363
 40
0.5
100
AcDbArc
 50
-90.0
 51
0.0
  0
ARC
  5
3FE
100
AcDbEntity
  8
1
  6
CONTINUOUS
 62
           2
100
AcDbCircle
 10
45.359228628097
 20
-1038.959706191363
 40
0.5
100
AcDbArc
 50
180.0
 51
-90.0
  0
ARC
  5
3FD
100
AcDbEntity
  8
1
  6
CONTINUOUS
 62
           2
100
AcDbCircle
 10
42.859218628097
 20
-1038.959706191363
 40
0.5
100
AcDbArc
 50
-90.0
 51
0.0
  0
ARC
  5
3FC
100
AcDbEntity
  8
1
  6
CONTINUOUS
 62
           2
100
AcDbCircle
 10
52.859228628037
 20
-1040.609706191363
 40
0.5
100
AcDbArc
 50
-90.0
 51
0.000301555963
  0
ARC
  5
3FB
100
AcDbEntity
  8
1
  6
CONTINUOUS
 62
           2
100
AcDbCircle
 10
28.859198628098
 20
-989.309716791364
 40
0.5
100
AcDbArc
 50
0.0
 51
90.000068755041
  0
ARC
  5
3FA
100
AcDbEntity
  8
1
  6
CONTINUOUS
 62
           2
100
AcDbCircle
 10
4.859228628097
 20
-989.309745591363
 40
0.5
100
AcDbArc
 50
90.000068755042
 51
180.0
  0
ARC
  5
3F9
100
AcDbEntity
  8
1
  6
CONTINUOUS
 62
           2
100
AcDbCircle
 10
5.509198628097
 20
-997.309726191363
 40
0.5
100
AcDbArc
 50
-90.0
 51
0.0
  0
ARC
  5
3F8
100
AcDbEntity
  8
1
  6
CONTINUOUS
 62
           2
100
AcDbCircle
 10
4.859228628097
 20
-997.309726191363
 40
0.5
100
AcDbArc
 50
180.0
 51
-90.0
  0
ARC
  5
3F7
100
AcDbEntity
  8
1
  6
CONTINUOUS
 62
           2
100
AcDbCircle
 10
4.859228628097
 20
-1056.309696191363
 40
0.5
100
AcDbArc
 50
180.0
 51
-90.0
  0
ARC
  5
3F6
100
AcDbEntity
  8
1
  6
CONTINUOUS
 62
           2
100
AcDbCircle
 10
4.859228628097
 20
-1048.309696191363
 40
0.5
100
AcDbArc
 50
90.0
 51
180.0
  0
ARC
  5
3F5
100
AcDbEntity
  8
1
  6
CONTINUOUS
 62
           2
100
AcDbCircle
 10
5.509198628097
 20
-1048.309696191363
 40
0.5
100
AcDbArc
 50
0.0
 51
90.0
  0
ARC
  5
3F4
100
AcDbEntity
  8
1
  6
CONTINUOUS
 62
           2
100
AcDbCircle
 10
29.859198628098
 20
-1038.959706191363
 40
0.5
100
AcDbArc
 50
180.0
 51
-90.0
  0
ARC
  5
3F3
100
AcDbEntity
  8
1
  6
CONTINUOUS
 62
           2
100
AcDbCircle
 10
29.859198628098
 20
-1041.609706191363
 40
0.5
100
AcDbArc
 50
90.0
 51
180.0
  0
ARC
  5
3F2
100
AcDbEntity
  8
1
  6
CONTINUOUS
 62
           2
100
AcDbCircle
 10
28.859198628098
 20
-1056.309696191363
 40
0.5
100
AcDbArc
 50
-90.0
 51
0.0
  0
LINE
  5
3F1
100
AcDbEntity
  8
0
  6
CONTINUOUS
 62
           2
100
AcDbLine
 10
29.359198628098
 20
-1038.959706191363
 11
29.359198628098
 21
-989.309716791364
  0
LINE
  5
3F0
100
AcDbEntity
  8
0
  6
CONTINUOUS
 62
           2
100
AcDbLine
 10
4.859228628097
 20
-1056.809696191363
 11
28.859198628098
 21
-1056.809696191363
  0
LINE
  5
3EF
100
AcDbEntity
  8
0
  6
CONTINUOUS
 62
           2
100
AcDbLine
 10
27.709218628097
 20
-1055.159696191363
 11
6.009198628097
 21
-1055.159696191363
  0
LINE
  5
3EE
100
AcDbEntity
  8
0
  6
CONTINUOUS
 62
           2
100
AcDbLine
 10
6.009198628097
 20
-1055.159696191363
 11
6.009198628097
 21
-1048.309696191363
  0
LINE
  5
3ED
100
AcDbEntity
  8
0
  6
CONTINUOUS
 62
           2
100
AcDbLine
 10
5.509198628097
 20
-1047.809696191363
 11
4.859228628097
 21
-1047.809696191363
  0
LINE
  5
3EC
100
AcDbEntity
  8
0
  6
CONTINUOUS
 62
           2
100
AcDbLine
 10
4.359228628097
 20
-1048.309696191363
 11
4.359228628097
 21
-1056.309696191363
  0
LINE
  5
3EB
100
AcDbEntity
  8
0
  6
CONTINUOUS
 62
           2
100
AcDbLine
 10
46.359208628097
 20
-1037.609696191363
 11
46.359208628097
 21
-1037.009533665413
  0
LINE
  5
3EA
100
AcDbEntity
  8
0
  6
CONTINUOUS
 62
           2
100
AcDbLine
 10
43.359218628097
 20
-1037.309732509723
 11
43.359218628097
 21
-1038.959706191363
  0
LINE
  5
3E9
100
AcDbEntity
  8
0
  6
CONTINUOUS
 62
           2
100
AcDbLine
 10
42.859218628097
 20
-1039.459706191363
 11
29.859198628098
 21
-1039.459706191363
  0
LINE
  5
3E8
100
AcDbEntity
  8
0
  6
CONTINUOUS
 62
           2
100
AcDbLine
 10
46.359208628097
 20
-1036.809556191363
 11
46.359208628097
 21
-1036.809516373879
  0
LINE
  5
3E7
100
AcDbEntity
  8
0
  6
CONTINUOUS
 62
           2
100
AcDbLine
 10
50.559228628097
 20
-1036.809706191363
 11
52.859211259662
 21
-1036.809706191363
  0
LINE
  5
3E6
100
AcDbEntity
  8
0
  6
CONTINUOUS
 62
           2
100
AcDbLine
 10
46.159191337309
 20
-1036.809533666161
 11
45.898645628345
 21
-1036.809556191363
  0
LINE
  5
3E5
100
AcDbEntity
  8
0
  6
CONTINUOUS
 62
           2
100
AcDbLine
 10
29.859198628098
 20
-1041.109706191363
 11
52.859228628037
 21
-1041.109706191363
  0
LINE
  5
3E4
100
AcDbEntity
  8
0
  6
CONTINUOUS
 62
           2
100
AcDbLine
 10
29.359198628098
 20
-1056.309696191363
 11
29.359198628098
 21
-1041.609706191363
  0
LINE
  5
3E3
100
AcDbEntity
  8
0
  6
CONTINUOUS
 62
           2
100
AcDbLine
 10
45.898645628345
 20
-1036.809556191363
 11
43.859175401129
 21
-1036.809732511592
  0
LINE
  5
3E2
100
AcDbEntity
  8
0
  6
CONTINUOUS
 62
           2
100
AcDbLine
 10
4.859228628097
 20
-997.809726191363
 11
5.509198628097
 21
-997.809726191363
  0
LINE
  5
3E1
100
AcDbEntity
  8
0
  6
CONTINUOUS
 62
           2
100
AcDbLine
 10
6.009198628097
 20
-997.309726191363
 11
6.009198628097
 21
-990.459736191363
  0
LINE
  5
3E0
100
AcDbEntity
  8
0
  6
CONTINUOUS
 62
           2
100
AcDbLine
 10
6.009198628097
 20
-990.459736191363
 11
27.709218628097
 21
-990.459736191363
  0
LINE
  5
3DF
100
AcDbEntity
  8
0
  6
CONTINUOUS
 62
           2
100
AcDbLine
 10
4.359228628097
 20
-989.309745591363
 11
4.359228628097
 21
-997.309726191363
  0
LINE
  5
3DE
100
AcDbEntity
  8
0
  6
CONTINUOUS
 62
           2
100
AcDbLine
 10
28.859198028097
 20
-988.809716791364
 11
4.859228028096
 21
-988.809745591363
  0
LINE
  5
3DD
100
AcDbEntity
  8
0
  6
CONTINUOUS
 62
           2
100
AcDbLine
 10
44.859228628097
 20
-1038.959706191363
 11
44.859228628097
 21
-1038.309696191363
  0
LINE
  5
3DC
100
AcDbEntity
  8
0
  6
CONTINUOUS
 62
           2
100
AcDbLine
 10
45.359228628097
 20
-1037.809696191363
 11
46.159208628097
 21
-1037.809696191363
  0
LINE
  5
3DB
100
AcDbEntity
  8
0
  6
CONTINUOUS
 62
           2
100
AcDbLine
 10
51.359198628097
 20
-1039.459706191363
 11
45.359228628097
 21
-1039.459706191363
  0
LINE
  5
3DA
100
AcDbEntity
  8
0
  6
CONTINUOUS
 62
           2
100
AcDbLine
 10
51.859198628097
 20
-1038.309706191363
 11
51.859198628097
 21
-1038.959706191363
  0
LINE
  5
3D9
100
AcDbEntity
  8
0
  6
CONTINUOUS
 62
           2
100
AcDbLine
 10
50.359228628097
 20
-1037.009706191363
 11
50.359228628097
 21
-1037.609706191363
  0
LINE
  5
3D8
100
AcDbEntity
  8
0
  6
CONTINUOUS
 62
           2
100
AcDbLine
 10
50.559228628097
 20
-1037.809706191363
 11
51.359198628097
 21
-1037.809706191363
  0
LINE
  5
3D7
100
AcDbEntity
  8
0
  6
CONTINUOUS
 62
           2
100
AcDbLine
 10
53.35922862803
 20
-1040.609703559791
 11
53.359211259655
 21
-1037.309703559791
  0
LINE
  5
3D6
100
AcDbEntity
  8
0
  6
CONTINUOUS
 62
           2
100
AcDbLine
 10
27.709218628097
 20
-990.459736191363
 11
27.709218628097
 21
-1055.159696191363
  0
ENDBLK
  5
408
100
AcDbEntity
  8
0
100
AcDbBlockEnd
  0
BLOCK
  5
94
100
AcDbEntity
  8
0
100
AcDbBlockBegin
  2
___Q_E
 70
           0
 10
0.0
 20
0.0
 30
0.0
  3
___Q_E
  1

  0
ARC
  5
43C
100
AcDbEntity
  8
1
  6
CONTINUOUS
 62
           2
100
AcDbCircle
 10
34.859468728539
 20
-995.709596191363
 40
0.5
100
AcDbArc
 50
180.0
 51
-90.0
  0
ARC
  5
43B
100
AcDbEntity
  8
1
  6
CONTINUOUS
 62
           2
100
AcDbCircle
 10
41.309188628098
 20
-1030.309386191363
 40
0.5
100
AcDbArc
 50
90.0
 51
180.0
  0
ARC
  5
43A
100
AcDbEntity
  8
1
  6
CONTINUOUS
 62
           2
100
AcDbCircle
 10
42.309188628098
 20
-1030.309386191363
 40
0.5
100
AcDbArc
 50
0.0
 51
90.0
  0
ARC
  5
439
100
AcDbEntity
  8
1
  6
CONTINUOUS
 62
           2
100
AcDbCircle
 10
100.859408628097
 20
-995.259606191363
 40
1.0
100
AcDbArc
 50
0.0
 51
90.0
  0
ARC
  5
438
100
AcDbEntity
  8
0
  6
CONTINUOUS
 62
           2
100
AcDbCircle
 10
41.809188628098
 20
-1032.809586191363
 40
1.0
100
AcDbArc
 50
180.0
 51
-90.0
  0
ARC
  5
437
100
AcDbEntity
  8
0
  6
CONTINUOUS
 62
           2
100
AcDbCircle
 10
35.359468728451
 20
-995.259606191363
 40
1.0
100
AcDbArc
 50
90.0
 51
-179.999239870957
  0
ARC
  5
436
100
AcDbEntity
  8
0
  6
CONTINUOUS
 62
           2
100
AcDbCircle
 10
90.359458628098
 20
-999.759586191363
 40
1.0
100
AcDbArc
 50
180.0
 51
-90.0
  0
ARC
  5
435
100
AcDbEntity
  8
0
  6
CONTINUOUS
 62
           2
100
AcDbCircle
 10
83.359448628097
 20
-1014.309576191363
 40
1.0
100
AcDbArc
 50
0.0
 51
90.0
  0
ARC
  5
434
100
AcDbEntity
  8
0
  6
CONTINUOUS
 62
           2
100
AcDbCircle
 10
83.359448628097
 20
-1032.809586191363
 40
1.0
100
AcDbArc
 50
-90.0
 51
0.0
  0
ARC
  5
433
100
AcDbEntity
  8
0
  6
CONTINUOUS
 62
           2
100
AcDbCircle
 10
100.859408628097
 20
-999.759586191363
 40
1.0
100
AcDbArc
 50
-90.0
 51
0.0
  0
LINE
  5
432
100
AcDbEntity
  8
1
  6
CONTINUOUS
 62
           2
100
AcDbLine
 10
34.359468728539
 20
-995.709596191363
 11
34.359468728539
 21
-995.259619458117
  0
LINE
  5
431
100
AcDbEntity
  8
0
  6
CONTINUOUS
 62
           2
100
AcDbLine
 10
42.809188628098
 20
-1031.859556191363
 11
42.809188628098
 21
-1030.309386191363
  0
LINE
  5
430
100
AcDbEntity
  8
0
  6
CONTINUOUS
 62
           2
100
AcDbLine
 10
42.309188628098
 20
-1029.809386191363
 11
41.309188628098
 21
-1029.809386191363
  0
LINE
  5
42F
100
AcDbEntity
  8
0
  6
CONTINUOUS
 62
           2
100
AcDbLine
 10
41.809188628098
 20
-1033.809586191363
 11
85.359418628097
 21
-1033.809586191363
  0
LINE
  5
42E
100
AcDbEntity
  8
0
  6
CONTINUOUS
 62
           2
100
AcDbLine
 10
46.859198628098
 20
-1031.859586191363
 11
42.809188628098
 21
-1031.859556191363
  0
LINE
  5
42D
100
AcDbEntity
  8
0
  6
CONTINUOUS
 62
           2
100
AcDbLine
 10
40.809188628098
 20
-1030.309386191363
 11
40.809188628098
 21
-1032.809586191363
  0
LINE
  5
42C
100
AcDbEntity
  8
0
  6
CONTINUOUS
 62
           2
100
AcDbLine
 10
79.409428628098
 20
-1031.859586191363
 11
48.809198628099
 21
-1031.859586191363
  0
LINE
  5
42B
100
AcDbEntity
  8
0
  6
CONTINUOUS
 62
           2
100
AcDbLine
 10
34.859468728539
 20
-996.209596191363
 11
46.859198628098
 21
-996.209596191363
  0
LINE
  5
42A
100
AcDbEntity
  8
0
  6
CONTINUOUS
 62
           2
100
AcDbLine
 10
46.859198628098
 20
-996.209596191363
 11
46.859198628098
 21
-1031.859586191363
  0
LINE
  5
429
100
AcDbEntity
  8
0
  6
CONTINUOUS
 62
           2
100
AcDbLine
 10
48.809198628099
 20
-1031.859586191363
 11
48.809198628099
 21
-996.209596191363
  0
LINE
  5
428
100
AcDbEntity
  8
0
  6
CONTINUOUS
 62
           2
100
AcDbLine
 10
48.809198628099
 20
-996.209596191363
 11
79.409428628098
 21
-996.209596191363
  0
LINE
  5
427
100
AcDbEntity
  8
0
  6
CONTINUOUS
 62
           2
100
AcDbLine
 10
79.409428628098
 20
-996.209596191363
 11
79.409428628098
 21
-1031.859586191363
  0
LINE
  5
426
100
AcDbEntity
  8
0
  6
CONTINUOUS
 62
           2
100
AcDbLine
 10
81.359458628098
 20
-1013.309576191363
 11
81.359458628098
 21
-996.209596191363
  0
LINE
  5
425
100
AcDbEntity
  8
0
  6
CONTINUOUS
 62
           2
100
AcDbLine
 10
81.359458628098
 20
-996.209596191363
 11
89.359458628098
 21
-996.209596191363
  0
LINE
  5
424
100
AcDbEntity
  8
0
  6
CONTINUOUS
 62
           2
100
AcDbLine
 10
101.359458628098
 20
-994.259606191363
 11
35.359468728451
 21
-994.259606191363
  0
LINE
  5
423
100
AcDbEntity
  8
1
  6
CONTINUOUS
 62
           2
100
AcDbLine
 10
107.359418628097
 20
-1033.809586191363
 11
85.359418628097
 21
-1033.809586191363
  0
LINE
  5
422
100
AcDbEntity
  8
0
  6
CONTINUOUS
 62
           2
100
AcDbLine
 10
83.359458628098
 20
-1017.809596191363
 11
84.359448628097
 21
-1017.809596191363
  0
LINE
  5
421
100
AcDbEntity
  8
0
  6
CONTINUOUS
 62
           2
100
AcDbLine
 10
84.359448628097
 20
-1017.809596191363
 11
84.359448628097
 21
-1014.309576191363
  0
LINE
  5
420
100
AcDbEntity
  8
0
  6
CONTINUOUS
 62
           2
100
AcDbLine
 10
83.359458628098
 20
-1014.609596191363
 11
83.359458628098
 21
-1017.809596191363
  0
LINE
  5
41F
100
AcDbEntity
  8
0
  6
CONTINUOUS
 62
           2
100
AcDbLine
 10
81.359458628098
 20
-1014.609596191363
 11
83.359458628098
 21
-1014.609596191363
  0
LINE
  5
41E
100
AcDbEntity
  8
0
  6
CONTINUOUS
 62
           2
100
AcDbLine
 10
81.359458628098
 20
-1032.509566191363
 11
81.359458628098
 21
-1014.609596191363
  0
LINE
  5
41D
100
AcDbEntity
  8
0
  6
CONTINUOUS
 62
           2
100
AcDbLine
 10
89.359458628098
 20
-996.209596191363
 11
89.359458628098
 21
-999.759586191363
  0
LINE
  5
41C
100
AcDbEntity
  8
0
  6
CONTINUOUS
 62
           2
100
AcDbLine
 10
90.859428628097
 20
-999.759596191363
 11
90.859428628097
 21
-996.209596191363
  0
LINE
  5
41B
100
AcDbEntity
  8
0
  6
CONTINUOUS
 62
           2
100
AcDbLine
 10
90.859428628097
 20
-996.209596191363
 11
100.359438628098
 21
-996.209596191363
  0
LINE
  5
41A
100
AcDbEntity
  8
0
  6
CONTINUOUS
 62
           2
100
AcDbLine
 10
90.359458628098
 20
-1000.759586191363
 11
91.659232628097
 21
-1000.759586191363
  0
LINE
  5
419
100
AcDbEntity
  8
0
  6
CONTINUOUS
 62
           2
100
AcDbLine
 10
91.659232628097
 20
-1000.759586191363
 11
91.761692628049
 21
-1000.759586191363
  0
LINE
  5
418
100
AcDbEntity
  8
0
  6
CONTINUOUS
 62
           2
100
AcDbLine
 10
91.761692628049
 20
-1000.759586191363
 11
92.359428628097
 21
-1000.759586191363
  0
LINE
  5
417
100
AcDbEntity
  8
0
  6
CONTINUOUS
 62
           2
100
AcDbLine
 10
92.359428628097
 20
-1000.759586191363
 11
92.359428628097
 21
-999.759596191363
  0
LINE
  5
416
100
AcDbEntity
  8
0
  6
CONTINUOUS
 62
           2
100
AcDbLine
 10
92.359428628097
 20
-999.759596191363
 11
90.859428628097
 21
-999.759596191363
  0
LINE
  5
415
100
AcDbEntity
  8
0
  6
CONTINUOUS
 62
           2
100
AcDbLine
 10
83.359448628097
 20
-1013.309576191363
 11
81.359458628098
 21
-1013.309576191363
  0
LINE
  5
414
100
AcDbEntity
  8
1
  6
CONTINUOUS
 62
           2
100
AcDbLine
 10
107.359418628097
 20
-994.259606191363
 11
100.859408628097
 21
-994.259606191363
  0
LINE
  5
413
100
AcDbEntity
  8
0
  6
CONTINUOUS
 62
           2
100
AcDbLine
 10
83.359458628098
 20
-1032.509566191363
 11
81.359458628098
 21
-1032.509566191363
  0
LINE
  5
412
100
AcDbEntity
  8
0
  6
CONTINUOUS
 62
           2
100
AcDbLine
 10
83.359458628098
 20
-1029.309566191363
 11
83.359458628098
 21
-1032.509566191363
  0
LINE
  5
411
100
AcDbEntity
  8
0
  6
CONTINUOUS
 62
           2
100
AcDbLine
 10
84.359448628097
 20
-1032.809586191363
 11
84.359448628097
 21
-1029.309566191363
  0
LINE
  5
410
100
AcDbEntity
  8
0
  6
CONTINUOUS
 62
           2
100
AcDbLine
 10
84.359448628097
 20
-1029.309566191363
 11
83.359458628098
 21
-1029.309566191363
  0
LINE
  5
40F
100
AcDbEntity
  8
0
  6
CONTINUOUS
 62
           2
100
AcDbLine
 10
100.359438628098
 20
-999.759596191363
 11
98.859438628098
 21
-999.759596191363
  0
LINE
  5
40E
100
AcDbEntity
  8
0
  6
CONTINUOUS
 62
           2
100
AcDbLine
 10
98.859438628098
 20
-999.759596191363
 11
98.859438628098
 21
-1000.759586191363
  0
LINE
  5
40D
100
AcDbEntity
  8
0
  6
CONTINUOUS
 62
           2
100
AcDbLine
 10
98.859438628098
 20
-1000.759586191363
 11
99.457174628146
 21
-1000.759586191363
  0
LINE
  5
40C
100
AcDbEntity
  8
0
  6
CONTINUOUS
 62
           2
100
AcDbLine
 10
99.457174628146
 20
-1000.759586191363
 11
99.559634628098
 21
-1000.759586191363
  0
LINE
  5
40B
100
AcDbEntity
  8
0
  6
CONTINUOUS
 62
           2
100
AcDbLine
 10
99.559634628098
 20
-1000.759586191363
 11
100.859408628097
 21
-1000.759586191363
  0
LINE
  5
40A
100
AcDbEntity
  8
0
  6
CONTINUOUS
 62
           2
100
AcDbLine
 10
100.359438628098
 20
-996.209596191363
 11
100.359438628098
 21
-999.759596191363
  0
LINE
  5
409
100
AcDbEntity
  8
0
  6
CONTINUOUS
 62
           2
100
AcDbLine
 10
101.859408628097
 20
-999.759586191363
 11
101.859408628097
 21
-995.259606191363
  0
ENDBLK
  5
43D
100
AcDbEntity
  8
0
100
AcDbBlockEnd
  0
BLOCK
  5
96
100
AcDbEntity
  8
0
100
AcDbBlockBegin
  2
_G_E_P_B_L__
 70
           0
 10
0.0
 20
0.0
 30
0.0
  3
_G_E_P_B_L__
  1

  0
ARC
  5
452
100
AcDbEntity
  8
0
  6
CONTINUOUS
 62
           2
100
AcDbCircle
 10
52.659518621815
 20
-1035.609854122216
 40
0.5
100
AcDbArc
 50
-0.000916618922
 51
89.996295137222
  0
ARC
  5
451
100
AcDbEntity
  8
0
  6
CONTINUOUS
 62
           2
100
AcDbCircle
 10
44.059428628097
 20
-1035.609705495273
 40
0.5
100
AcDbArc
 50
89.999432783123
 51
180.0
  0
LINE
  5
450
100
AcDbEntity
  8
0
  6
CONTINUOUS
 62
           4
100
AcDbLine
 10
45.559428628097
 20
-1035.709244223224
 11
51.159508628097
 21
-1035.709226191363
  0
LINE
  5
44F
100
AcDbEntity
  8
0
  6
CONTINUOUS
 62
           4
100
AcDbLine
 10
45.559428628097
 20
-1036.109536191363
 11
45.559428628097
 21
-1035.709244223224
  0
LINE
  5
44E
100
AcDbEntity
  8
0
  6
CONTINUOUS
 62
           2
100
AcDbLine
 10
53.159478625697
 20
-1036.809706191363
 11
53.159518621751
 21
-1035.609862121225
  0
LINE
  5
44D
100
AcDbEntity
  8
0
  6
CONTINUOUS
 62
           2
100
AcDbLine
 10
43.559428628097
 20
-1035.609705495273
 11
43.559428628097
 21
-1036.809556191363
  0
LINE
  5
44C
100
AcDbEntity
  8
0
  6
CONTINUOUS
 62
           4
100
AcDbLine
 10
51.159508628097
 20
-1035.709226191363
 11
51.159478628097
 21
-1036.109536191363
  0
LINE
  5
44B
100
AcDbEntity
  8
0
  6
CONTINUOUS
 62
           4
100
AcDbLine
 10
51.159478628097
 20
-1036.109536191363
 11
45.559428628097
 21
-1036.109536191363
  0
LINE
  5
44A
100
AcDbEntity
  8
0
  6
CONTINUOUS
 62
           2
100
AcDbLine
 10
46.359208628097
 20
-1036.809556191363
 11
46.659528628097
 21
-1036.809556191363
  0
LINE
  5
449
100
AcDbEntity
  8
0
  6
CONTINUOUS
 62
           2
100
AcDbLine
 10
45.898645628345
 20
-1036.809556191363
 11
46.359208628097
 21
-1036.809556191363
  0
LINE
  5
448
100
AcDbEntity
  8
0
  6
CONTINUOUS
 62
           2
100
AcDbLine
 10
43.559428628097
 20
-1036.809556191363
 11
45.898645628345
 21
-1036.809556191363
  0
LINE
  5
447
100
AcDbEntity
  8
0
  6
CONTINUOUS
 62
           2
100
AcDbLine
 10
50.059438628097
 20
-1036.809706191363
 11
50.359228628097
 21
-1036.809706191363
  0
LINE
  5
446
100
AcDbEntity
  8
0
  6
CONTINUOUS
 62
           2
100
AcDbLine
 10
50.359228628097
 20
-1036.809706191363
 11
53.159478625697
 21
-1036.809706191363
  0
LINE
  5
445
100
AcDbEntity
  8
0
  6
CONTINUOUS
 62
           2
100
AcDbLine
 10
52.659550952842
 20
-1035.109718234484
 11
44.059433577998
 21
-1035.109705495297
  0
LINE
  5
444
100
AcDbEntity
  8
0
  6
CONTINUOUS
 62
           2
100
AcDbLine
 10
45.159538628098
 20
-1039.409512679233
 11
51.559438628097
 21
-1039.409510755811
  0
LINE
  5
443
100
AcDbEntity
  8
0
  6
CONTINUOUS
 62
           2
100
AcDbLine
 10
45.159538628098
 20
-1038.209526191363
 11
45.159538628098
 21
-1039.409512679233
  0
LINE
  5
442
100
AcDbEntity
  8
0
  6
CONTINUOUS
 62
           2
100
AcDbLine
 10
46.659528628097
 20
-1038.209496191363
 11
45.159538628098
 21
-1038.209526191363
  0
LINE
  5
441
100
AcDbEntity
  8
0
  6
CONTINUOUS
 62
           2
100
AcDbLine
 10
46.659528628097
 20
-1036.809556191363
 11
46.659528628097
 21
-1038.209496191363
  0
LINE
  5
440
100
AcDbEntity
  8
0
  6
CONTINUOUS
 62
           2
100
AcDbLine
 10
51.559438628097
 20
-1039.409510755811
 11
51.559438628097
 21
-1038.209516191363
  0
LINE
  5
43F
100
AcDbEntity
  8
0
  6
CONTINUOUS
 62
           2
100
AcDbLine
 10
50.059438628097
 20
-1038.209496191363
 11
50.059438628097
 21
-1036.809706191363
  0
LINE
  5
43E
100
AcDbEntity
  8
0
  6
CONTINUOUS
 62
           2
100
AcDbLine
 10
51.559438628097
 20
-1038.209516191363
 11
50.059438628097
 21
-1038.209496191363
  0
ENDBLK
  5
453
100
AcDbEntity
  8
0
100
AcDbBlockEnd
  0
BLOCK
  5
98
100
AcDbEntity
  8
0
100
AcDbBlockBegin
  2
SKB_A3__S
 70
           0
 10
0.0
 20
0.0
 30
0.0
  3
SKB_A3__S
  1

  0
LINE
  5
460
100
AcDbEntity
  8
1
  6
CONTINUOUS
 62
           2
100
AcDbLine
 10
-668.920630199253
 20
-1239.609623407273
 11
-668.920630199253
 21
-1232.609623407273
  0
LINE
  5
45F
100
AcDbEntity
  8
1
  6
CONTINUOUS
 62
           2
100
AcDbLine
 10
-332.920630199253
 20
-1239.609623407273
 11
-668.920630199253
 21
-1239.609623407273
  0
LINE
  5
45E
100
AcDbEntity
  8
1
  6
PHANTOM
 62
           4
100
AcDbLine
 10
-318.920630199253
 20
-1249.609623407273
 11
-318.920630199253
 21
-963.609623407273
  0
LINE
  5
45D
100
AcDbEntity
  8
1
  6
PHANTOM
 62
           4
100
AcDbLine
 10
-727.920630199253
 20
-1249.609623407273
 11
-318.920630199253
 21
-1249.609623407273
  0
LINE
  5
45C
100
AcDbEntity
  8
1
  6
PHANTOM
 62
           4
100
AcDbLine
 10
-318.920630199253
 20
-963.609623407273
 11
-727.920630199253
 21
-963.609623407273
  0
LINE
  5
45B
100
AcDbEntity
  8
1
  6
PHANTOM
 62
           4
100
AcDbLine
 10
-727.920630199253
 20
-963.609623407273
 11
-727.920630199253
 21
-1249.609623407273
  0
LINE
  5
45A
100
AcDbEntity
  8
1
  6
CONTINUOUS
 62
           2
100
AcDbLine
 10
-332.920630199253
 20
-1232.609623407273
 11
-332.920630199253
 21
-1239.609623407273
  0
LINE
  5
459
100
AcDbEntity
  8
1
  6
CONTINUOUS
 62
           2
100
AcDbLine
 10
-620.920630199253
 20
-1239.609623407274
 11
-620.920630199253
 21
-1232.609623407273
  0
LINE
  5
458
100
AcDbEntity
  8
1
  6
CONTINUOUS
 62
           2
100
AcDbLine
 10
-572.920630199253
 20
-1239.609623407273
 11
-572.920630199253
 21
-1232.609623407273
  0
LINE
  5
457
100
AcDbEntity
  8
1
  6
CONTINUOUS
 62
           2
100
AcDbLine
 10
-524.920630199253
 20
-1239.609623407273
 11
-524.920630199253
 21
-1232.609623407273
  0
LINE
  5
456
100
AcDbEntity
  8
1
  6
CONTINUOUS
 62
           2
100
AcDbLine
 10
-476.920630199253
 20
-1239.609623407273
 11
-476.920630199253
 21
-1232.609623407273
  0
LINE
  5
455
100
AcDbEntity
  8
1
  6
CONTINUOUS
 62
           2
100
AcDbLine
 10
-428.920630199253
 20
-1239.609623407273
 11
-428.920630199253
 21
-1232.609623407273
  0
LINE
  5
454
100
AcDbEntity
  8
1
  6
CONTINUOUS
 62
           2
100
AcDbLine
 10
-380.920630199253
 20
-1239.609623407273
 11
-380.920630199253
 21
-1232.609623407273
  0
ENDBLK
  5
461
100
AcDbEntity
  8
0
100
AcDbBlockEnd
  0
BLOCK
  5
9A
100
AcDbEntity
  8
0
100
AcDbBlockBegin
  2
SKB_A3_MI
 70
           0
 10
0.0
 20
0.0
 30
0.0
  3
SKB_A3_MI
  1

  0
INSERT
  5
9B
100
AcDbEntity
  8
0
100
AcDbBlockReference
  2
SKB_A3__S
 10
431.0
 20
0.0
  0
ENDBLK
  5
462
100
AcDbEntity
  8
0
100
AcDbBlockEnd
  0
BLOCK
  5
9D
100
AcDbEntity
  8
0
100
AcDbBlockBegin
  2
X_A______21
 70
           0
 10
0.0
 20
0.0
 30
0.0
  3
X_A______21
  1

  0
LINE
  5
467
100
AcDbEntity
  8
1
  6
DOT_CENTER
 62
           4
100
AcDbLine
 10
-214.81299815416
 20
-1169.7035097606
 11
-211.31299815416
 21
-1169.7035097606
  0
LINE
  5
466
100
AcDbEntity
  8
1
  6
CONTINUOUS
 62
           7
100
AcDbLine
 10
-213.81299815416
 20
-1202.7035097606
 11
-213.81299815416
 21
-1159.2035097606
  0
LINE
  5
465
100
AcDbEntity
  8
1
  6
CONTINUOUS
 62
           7
100
AcDbLine
 10
-212.31299815416
 20
-1202.7035097606
 11
-213.81299815416
 21
-1202.7035097606
  0
LINE
  5
464
100
AcDbEntity
  8
1
  6
CONTINUOUS
 62
           7
100
AcDbLine
 10
-212.31299815416
 20
-1159.2035097606
 11
-212.31299815416
 21
-1202.7035097606
  0
LINE
  5
463
100
AcDbEntity
  8
1
  6
DOT_CENTER
 62
           4
100
AcDbLine
 10
-214.81299815416
 20
-1193.7035097606
 11
-211.31299815416
 21
-1193.7035097606
  0
ENDBLK
  5
468
100
AcDbEntity
  8
0
100
AcDbBlockEnd
  0
BLOCK
  5
9F
100
AcDbEntity
  8
0
100
AcDbBlockBegin
  2
____
 70
           0
 10
0.0
 20
0.0
 30
0.0
  3
____
  1

  0
ARC
  5
487
100
AcDbEntity
  8
1
  6
CONTINUOUS
 62
           7
100
AcDbCircle
 10
-215.31299815415
 20
-1167.7535097606
 40
0.3
100
AcDbArc
 50
90.0
 51
180.0
  0
ARC
  5
486
100
AcDbEntity
  8
1
  6
CONTINUOUS
 62
           7
100
AcDbCircle
 10
-215.31299815415
 20
-1171.6535097606
 40
0.299999999999
100
AcDbArc
 50
180.0
 51
-90.0
  0
ARC
  5
485
100
AcDbEntity
  8
1
  6
CONTINUOUS
 62
           7
100
AcDbCircle
 10
-218.81299815416
 20
-1186.599151176806
 40
5.0
100
AcDbArc
 50
0.0
 51
18.207064221961
  0
ARC
  5
484
100
AcDbEntity
  8
1
  6
CONTINUOUS
 62
           7
100
AcDbCircle
 10
-218.817737157727
 20
-1186.571384286309
 40
4.0
100
AcDbArc
 50
0.015368816296
 51
17.707878666098
  0
ARC
  5
483
100
AcDbEntity
  8
1
  6
CONTINUOUS
 62
           7
100
AcDbCircle
 10
-214.835421087788
 20
-1187.208078322855
 40
0.099999999999
100
AcDbArc
 50
-86.570462323166
 51
3.429537677717
  0
ARC
  5
482
100
AcDbEntity
  8
1
  6
CONTINUOUS
 62
           7
100
AcDbCircle
 10
-214.044511608615
 20
-1200.40567138885
 40
0.100000000001
100
AcDbArc
 50
3.429537677022
 51
93.429537676916
  0
ARC
  5
481
100
AcDbEntity
  8
1
  6
CONTINUOUS
 62
           7
100
AcDbCircle
 10
-214.186207212302
 20
-1199.712907102894
 40
0.599999999999
100
AcDbArc
 50
-176.57046232279
 51
-86.570462322732
  0
ARC
  5
480
100
AcDbEntity
  8
1
  6
CONTINUOUS
 62
           7
100
AcDbCircle
 10
-214.893367308315
 20
-1187.912806806405
 40
0.600000000001
100
AcDbArc
 50
93.42953767723
 51
-176.570462322796
  0
ARC
  5
47F
100
AcDbEntity
  8
1
  6
CONTINUOUS
 62
           7
100
AcDbCircle
 10
-215.81299815415
 20
-1173.200648748653
 40
0.999999999999
100
AcDbArc
 50
-73.214435327894
 51
0.0
  0
ARC
  5
47E
100
AcDbEntity
  8
1
  6
CONTINUOUS
 62
           7
100
AcDbCircle
 10
-215.81299815416
 20
-1173.200648748653
 40
2.000000000001
100
AcDbArc
 50
-73.21443532788
 51
0.0
  0
ARC
  5
47D
100
AcDbEntity
  8
1
  6
CONTINUOUS
 62
           7
100
AcDbCircle
 10
-217.011866557199
 20
-1176.7035097606
 40
1.997816270631
100
AcDbArc
 50
106.785564672072
 51
180.0
  0
ARC
  5
47C
100
AcDbEntity
  8
1
  6
CONTINUOUS
 62
           7
100
AcDbCircle
 10
-217.011866557199
 20
-1176.7035097606
 40
0.997816270631
100
AcDbArc
 50
106.785564672058
 51
180.0
  0
ARC
  5
47B
100
AcDbEntity
  8
1
  6
CONTINUOUS
 62
           7
100
AcDbCircle
 10
-217.011866557199
 20
-1176.7035097606
 40
0.997816270631
100
AcDbArc
 50
180.0
 51
-155.18936897653
  0
ARC
  5
47A
100
AcDbEntity
  8
1
  6
CONTINUOUS
 62
           7
100
AcDbCircle
 10
-217.011866557199
 20
-1176.7035097606
 40
1.997816270631
100
AcDbArc
 50
180.0
 51
-155.123903805652
  0
LINE
  5
479
100
AcDbEntity
  8
1
  6
CONTINUOUS
 62
           7
100
AcDbLine
 10
-215.31299815415
 20
-1167.4535097606
 11
-214.81299815415
 21
-1167.4535097606
  0
LINE
  5
478
100
AcDbEntity
  8
1
  6
CONTINUOUS
 62
           7
100
AcDbLine
 10
-214.81299815415
 20
-1171.9535097606
 11
-215.31299815415
 21
-1171.9535097606
  0
LINE
  5
477
100
AcDbEntity
  8
1
  6
CONTINUOUS
 62
           7
100
AcDbLine
 10
-215.612998154149
 20
-1171.6535097606
 11
-215.612998154149
 21
-1167.7535097606
  0
LINE
  5
476
100
AcDbEntity
  8
1
  6
CONTINUOUS
 62
           7
100
AcDbLine
 10
-212.812960252006
 20
-1202.560497571651
 11
-213.765284917007
 21
-1186.597729176187
  0
LINE
  5
475
100
AcDbEntity
  8
1
  6
CONTINUOUS
 62
           7
100
AcDbLine
 10
-214.76995828984
 20
-1186.628775988132
 11
-213.811629750892
 21
-1202.620024561569
  0
LINE
  5
474
100
AcDbEntity
  8
1
  6
CONTINUOUS
 62
           7
100
AcDbLine
 10
-214.929259901098
 20
-1187.313881333759
 11
-214.829438988992
 21
-1187.307899234962
  0
LINE
  5
473
100
AcDbEntity
  8
1
  6
CONTINUOUS
 62
           7
100
AcDbLine
 10
-214.150314619518
 20
-1200.31183257554
 11
-214.050493707411
 21
-1200.305850476742
  0
LINE
  5
472
100
AcDbEntity
  8
1
  6
CONTINUOUS
 62
           7
100
AcDbLine
 10
-215.49229278096
 20
-1187.948699399188
 11
-214.785132684946
 21
-1199.748799695677
  0
LINE
  5
471
100
AcDbEntity
  8
1
  6
CONTINUOUS
 62
           7
100
AcDbLine
 10
-213.811629750892
 20
-1202.620024561569
 11
-212.812960252006
 21
-1202.560497571651
  0
LINE
  5
470
100
AcDbEntity
  8
1
  6
CONTINUOUS
 62
           7
100
AcDbLine
 10
-213.81299815416
 20
-1164.7035097606
 11
-213.81299815416
 21
-1173.200648748653
  0
LINE
  5
46F
100
AcDbEntity
  8
1
  6
CONTINUOUS
 62
           7
100
AcDbLine
 10
-214.81299815415
 20
-1164.7035097606
 11
-213.81299815416
 21
-1164.7035097606
  0
LINE
  5
46E
100
AcDbEntity
  8
1
  6
CONTINUOUS
 62
           7
100
AcDbLine
 10
-214.81299815415
 20
-1164.7035097606
 11
-214.81299815415
 21
-1173.200648748653
  0
LINE
  5
46D
100
AcDbEntity
  8
1
  6
CONTINUOUS
 62
           7
100
AcDbLine
 10
-219.009682827829
 20
-1176.7035097606
 11
-219.011866557199
 21
-1176.684842533476
  0
LINE
  5
46C
100
AcDbEntity
  8
1
  6
CONTINUOUS
 62
           7
100
AcDbLine
 10
-217.58881711043
 20
-1174.790815872304
 11
-215.52420755728
 21
-1174.158041035627
  0
LINE
  5
46B
100
AcDbEntity
  8
1
  6
CONTINUOUS
 62
           7
100
AcDbLine
 10
-217.30002651356
 20
-1175.748208159279
 11
-215.235416960419
 21
-1175.115433322604
  0
LINE
  5
46A
100
AcDbEntity
  8
1
  6
CONTINUOUS
 62
           7
100
AcDbLine
 10
-217.917584021946
 20
-1177.122213933002
 11
-214.06333047764
 21
-1185.036890967167
  0
LINE
  5
469
100
AcDbEntity
  8
1
  6
CONTINUOUS
 62
           7
100
AcDbLine
 10
-218.824324618206
 20
-1177.543905874517
 11
-215.007258497459
 21
-1185.354728057276
  0
ENDBLK
  5
488
100
AcDbEntity
  8
0
100
AcDbBlockEnd
  0
BLOCK
  5
4F1
100
AcDbEntity
  8
0
100
AcDbBlockBegin
  2
*D48
 70
           1
 10
0.0
 20
0.0
 30
0.0
  3
*D48
  1

  0
LINE
  5
4F2
100
AcDbEntity
  8
0
  6
CONTINUOUS
 62
           2
100
AcDbLine
 10
29.359198628098
 20
-1074.34059657882
 11
71.359198628094
 21
-1074.34059657882
  0
LINE
  5
4F3
100
AcDbEntity
  8
0
  6
CONTINUOUS
 62
           2
100
AcDbLine
 10
71.359198628094
 20
-1043.809706191361
 11
71.359198628094
 21
-1076.34059657882
  0
LINE
  5
4F4
100
AcDbEntity
  8
0
  6
CONTINUOUS
 62
           2
100
AcDbLine
 10
29.359198628098
 20
-1039.659706191363
 11
29.359198628098
 21
-1076.34059657882
  0
LINE
  5
4F5
100
AcDbEntity
  8
0
 62
           2
100
AcDbLine
 10
29.359198628098
 20
-1074.34059657882
 11
32.859198628098
 21
-1073.402774405311
  0
LINE
  5
4F6
100
AcDbEntity
  8
0
 62
           2
100
AcDbLine
 10
29.359198628098
 20
-1074.34059657882
 11
32.859198628098
 21
-1075.278418752329
  0
LINE
  5
4F7
100
AcDbEntity
  8
0
 62
           2
100
AcDbLine
 10
71.359198628094
 20
-1074.34059657882
 11
67.859198628094
 21
-1075.278418752329
  0
LINE
  5
4F8
100
AcDbEntity
  8
0
 62
           2
100
AcDbLine
 10
71.359198628094
 20
-1074.34059657882
 11
67.859198628094
 21
-1073.402774405311
  0
TEXT
  5
4FA
100
AcDbEntity
  8
0
 62
           3
100
AcDbText
 10
48.019502167367
 20
-1072.34059657882
 40
2.625
  1
42
 41
1.2
  7
CONVERTER_6
100
AcDbText
  0
ENDBLK
  5
4FB
100
AcDbEntity
  8
0
100
AcDbBlockEnd
  0
BLOCK
  5
501
100
AcDbEntity
  8
0
100
AcDbBlockBegin
  2
*D51
 70
           1
 10
0.0
 20
0.0
 30
0.0
  3
*D51
  1

  0
LINE
  5
502
100
AcDbEntity
  8
0
  6
CONTINUOUS
 62
           2
100
AcDbLine
 10
46.35922862803
 20
-1060.65970581764
 11
53.35922862803
 21
-1060.65970581764
  0
LINE
  5
503
100
AcDbEntity
  8
0
  6
CONTINUOUS
 62
           2
100
AcDbLine
 10
53.35922862803
 20
-1060.65970581764
 11
55.359198628095
 21
-1060.65970581764
  0
LINE
  5
504
100
AcDbEntity
  8
0
  6
CONTINUOUS
 62
           2
100
AcDbLine
 10
55.359198628095
 20
-1060.65970581764
 11
68.444671594025
 21
-1060.65970581764
  0
LINE
  5
505
100
AcDbEntity
  8
0
  6
CONTINUOUS
 62
           2
100
AcDbLine
 10
55.359198628095
 20
-1048.309706191362
 11
55.359198628095
 21
-1062.65970581764
  0
LINE
  5
506
100
AcDbEntity
  8
0
  6
CONTINUOUS
 62
           2
100
AcDbLine
 10
53.35922862803
 20
-1041.309703559791
 11
53.35922862803
 21
-1062.65970581764
  0
LINE
  5
507
100
AcDbEntity
  8
0
 62
           2
100
AcDbLine
 10
53.35922862803
 20
-1060.65970581764
 11
49.85922862803
 21
-1061.597527991149
  0
LINE
  5
508
100
AcDbEntity
  8
0
 62
           2
100
AcDbLine
 10
53.35922862803
 20
-1060.65970581764
 11
49.85922862803
 21
-1059.721883644131
  0
LINE
  5
509
100
AcDbEntity
  8
0
 62
           2
100
AcDbLine
 10
55.359198628095
 20
-1060.65970581764
 11
58.859198628095
 21
-1059.721883644131
  0
LINE
  5
50A
100
AcDbEntity
  8
0
 62
           2
100
AcDbLine
 10
55.359198628095
 20
-1060.65970581764
 11
58.859198628095
 21
-1061.597527991149
  0
MTEXT
  5
50B
100
AcDbEntity
  8
0
 62
           3
100
AcDbMText
 10
60.495885751108
 20
-1058.65970581764
 30
0.0
 40
2.625
 41
0.0
 71
           7
 72
           1
  1
\C3;(\C3;2\C3;)
  7
CONVERTER_6
  0
ENDBLK
  5
50C
100
AcDbEntity
  8
0
100
AcDbBlockEnd
  0
BLOCK
  5
512
100
AcDbEntity
  8
0
100
AcDbBlockBegin
  2
*D54
 70
           1
 10
0.0
 20
0.0
 30
0.0
  3
*D54
  1

  0
LINE
  5
513
100
AcDbEntity
  8
0
  6
CONTINUOUS
 62
           2
100
AcDbLine
 10
42.359198628098
 20
-1065.12343463435
 11
35.359198628098
 21
-1065.12343463435
  0
LINE
  5
514
100
AcDbEntity
  8
0
  6
CONTINUOUS
 62
           2
100
AcDbLine
 10
35.359198628098
 20
-1065.12343463435
 11
29.359198628098
 21
-1065.12343463435
  0
LINE
  5
515
100
AcDbEntity
  8
0
  6
CONTINUOUS
 62
           2
100
AcDbLine
 10
29.359198628098
 20
-1065.12343463435
 11
14.786569012836
 21
-1065.12343463435
  0
LINE
  5
516
100
AcDbEntity
  8
0
  6
CONTINUOUS
 62
           2
100
AcDbLine
 10
29.359198628098
 20
-1039.659706191363
 11
29.359198628098
 21
-1067.12343463435
  0
LINE
  5
517
100
AcDbEntity
  8
0
  6
CONTINUOUS
 62
           2
100
AcDbLine
 10
35.359198628098
 20
-1030.609706191309
 11
35.359198628098
 21
-1067.12343463435
  0
LINE
  5
518
100
AcDbEntity
  8
0
 62
           2
100
AcDbLine
 10
35.359198628098
 20
-1065.12343463435
 11
38.859198628098
 21
-1064.185612460841
  0
LINE
  5
519
100
AcDbEntity
  8
0
 62
           2
100
AcDbLine
 10
35.359198628098
 20
-1065.12343463435
 11
38.859198628098
 21
-1066.061256807859
  0
LINE
  5
51A
100
AcDbEntity
  8
0
 62
           2
100
AcDbLine
 10
29.359198628098
 20
-1065.12343463435
 11
25.859198628098
 21
-1066.061256807859
  0
LINE
  5
51B
100
AcDbEntity
  8
0
 62
           2
100
AcDbLine
 10
29.359198628098
 20
-1065.12343463435
 11
25.859198628098
 21
-1064.185612460841
  0
MTEXT
  5
51C
100
AcDbEntity
  8
0
 62
           3
100
AcDbMText
 10
14.786569012836
 20
-1063.12343463435
 30
0.0
 40
2.625
 41
0.0
 71
           7
 72
           1
  1
\C3;6\C3;\H2.100000;{\Fgdt;`}0.5
  7
CONVERTER_6
  0
ENDBLK
  5
51D
100
AcDbEntity
  8
0
100
AcDbBlockEnd
  0
BLOCK
  5
523
100
AcDbEntity
  8
0
100
AcDbBlockBegin
  2
*D57
 70
           1
 10
0.0
 20
0.0
 30
0.0
  3
*D57
  1

  0
LINE
  5
524
100
AcDbEntity
  8
0
  6
CONTINUOUS
 62
           2
100
AcDbLine
 10
-1.037771704846
 20
-1037.209706191363
 11
-1.037771704846
 21
-1001.209706191363
  0
LINE
  5
525
100
AcDbEntity
  8
0
  6
CONTINUOUS
 62
           2
100
AcDbLine
 10
28.659198628098
 20
-1001.209706191363
 11
-3.037771704846
 21
-1001.209706191363
  0
LINE
  5
526
100
AcDbEntity
  8
0
  6
CONTINUOUS
 62
           2
100
AcDbLine
 10
28.659198628098
 20
-1037.209706191363
 11
-3.037771704846
 21
-1037.209706191363
  0
LINE
  5
527
100
AcDbEntity
  8
0
 62
           2
100
AcDbLine
 10
-1.037771704846
 20
-1037.209706191363
 11
-1.975593878355
 21
-1033.709706191363
  0
LINE
  5
528
100
AcDbEntity
  8
0
 62
           2
100
AcDbLine
 10
-1.037771704846
 20
-1037.209706191363
 11
-0.099949531337
 21
-1033.709706191363
  0
LINE
  5
529
100
AcDbEntity
  8
0
 62
           2
100
AcDbLine
 10
-1.037771704846
 20
-1001.209706191363
 11
-0.099949531337
 21
-1004.709706191363
  0
LINE
  5
52A
100
AcDbEntity
  8
0
 62
           2
100
AcDbLine
 10
-1.037771704846
 20
-1001.209706191363
 11
-1.975593878355
 21
-1004.709706191363
  0
MTEXT
  5
52C
100
AcDbEntity
  8
0
 62
           3
100
AcDbMText
 10
-3.037771704846
 20
-1028.232849112821
 30
0.0
 40
2.625
 41
0.0
 71
           7
 72
           1
  1
\C3;36\C3;(本体幅)
  7
CONVERTER_7
 11
0.0
 21
1.0
 31
0.0
  0
ENDBLK
  5
52D
100
AcDbEntity
  8
0
100
AcDbBlockEnd
  0
BLOCK
  5
533
100
AcDbEntity
  8
0
100
AcDbBlockBegin
  2
*D60
 70
           1
 10
0.0
 20
0.0
 30
0.0
  3
*D60
  1

  0
LINE
  5
534
100
AcDbEntity
  8
0
  6
CONTINUOUS
 62
           2
100
AcDbLine
 10
22.359198628098
 20
-985.561083355981
 11
29.359198628098
 21
-985.561083355981
  0
LINE
  5
535
100
AcDbEntity
  8
0
  6
CONTINUOUS
 62
           2
100
AcDbLine
 10
29.359198628098
 20
-985.561083355981
 11
38.859198628099
 21
-985.561083355981
  0
LINE
  5
536
100
AcDbEntity
  8
0
  6
CONTINUOUS
 62
           2
100
AcDbLine
 10
38.859198628099
 20
-985.561083355981
 11
45.859198628099
 21
-985.561083355981
  0
LINE
  5
537
100
AcDbEntity
  8
0
  6
CONTINUOUS
 62
           2
100
AcDbLine
 10
38.859198628099
 20
-1000.509706191363
 11
38.859198628099
 21
-983.561083355981
  0
LINE
  5
538
100
AcDbEntity
  8
0
  6
CONTINUOUS
 62
           2
100
AcDbLine
 10
29.359198628098
 20
-1000.509706192181
 11
29.359198628098
 21
-983.561083355981
  0
LINE
  5
539
100
AcDbEntity
  8
0
 62
           2
100
AcDbLine
 10
29.359198628098
 20
-985.561083355981
 11
25.859198628098
 21
-986.49890552949
  0
LINE
  5
53A
100
AcDbEntity
  8
0
 62
           2
100
AcDbLine
 10
29.359198628098
 20
-985.561083355981
 11
25.859198628098
 21
-984.623261182472
  0
LINE
  5
53B
100
AcDbEntity
  8
0
 62
           2
100
AcDbLine
 10
38.859198628099
 20
-985.561083355981
 11
42.359198628099
 21
-984.623261182472
  0
LINE
  5
53C
100
AcDbEntity
  8
0
 62
           2
100
AcDbLine
 10
38.859198628099
 20
-985.561083355981
 11
42.359198628099
 21
-986.49890552949
  0
TEXT
  5
53D
100
AcDbEntity
  8
0
 62
           3
100
AcDbText
 10
31.14450216737
 20
-983.561083355981
 40
2.625
  1
9.5
 41
1.2
  7
CONVERTER_6
100
AcDbText
  0
ENDBLK
  5
53E
100
AcDbEntity
  8
0
100
AcDbBlockEnd
  0
BLOCK
  5
544
100
AcDbEntity
  8
0
100
AcDbBlockBegin
  2
*D63
 70
           1
 10
0.0
 20
0.0
 30
0.0
  3
*D63
  1

  0
LINE
  5
545
100
AcDbEntity
  8
0
  6
CONTINUOUS
 62
           2
100
AcDbLine
 10
-41.277900681254
 20
-988.662739119621
 11
-88.177900674156
 21
-988.662739119621
  0
LINE
  5
546
100
AcDbEntity
  8
0
  6
CONTINUOUS
 62
           2
100
AcDbLine
 10
-88.177900674156
 20
-1063.5035097606
 11
-88.177900674156
 21
-986.662739119621
  0
LINE
  5
547
100
AcDbEntity
  8
0
  6
CONTINUOUS
 62
           2
100
AcDbLine
 10
-41.277900681254
 20
-1006.003509760455
 11
-41.277900681254
 21
-986.662739119621
  0
LINE
  5
548
100
AcDbEntity
  8
0
 62
           2
100
AcDbLine
 10
-41.277900681254
 20
-988.662739119621
 11
-44.777900681254
 21
-989.60056129313
  0
LINE
  5
549
100
AcDbEntity
  8
0
 62
           2
100
AcDbLine
 10
-41.277900681254
 20
-988.662739119621
 11
-44.777900681254
 21
-987.724916946112
  0
LINE
  5
54A
100
AcDbEntity
  8
0
 62
           2
100
AcDbLine
 10
-88.177900674156
 20
-988.662739119621
 11
-84.677900674156
 21
-987.724916946112
  0
LINE
  5
54B
100
AcDbEntity
  8
0
 62
           2
100
AcDbLine
 10
-88.177900674156
 20
-988.662739119621
 11
-84.677900674156
 21
-989.60056129313
  0
TEXT
  5
54C
100
AcDbEntity
  8
0
 62
           3
100
AcDbText
 10
-68.817597138434
 20
-986.662739119621
 40
2.625
  1
46.9
 41
1.2
  7
CONVERTER_6
100
AcDbText
  0
ENDBLK
  5
54D
100
AcDbEntity
  8
0
100
AcDbBlockEnd
  0
BLOCK
  5
553
100
AcDbEntity
  8
0
100
AcDbBlockBegin
  2
*D66
 70
           1
 10
0.0
 20
0.0
 30
0.0
  3
*D66
  1

  0
LINE
  5
554
100
AcDbEntity
  8
0
  6
CONTINUOUS
 62
           2
100
AcDbLine
 10
-76.777900678969
 20
-998.810209178091
 11
-88.177900674156
 21
-998.810209178091
  0
LINE
  5
555
100
AcDbEntity
  8
0
  6
CONTINUOUS
 62
           2
100
AcDbLine
 10
-88.177900674156
 20
-1063.5035097606
 11
-88.177900674156
 21
-996.810209178091
  0
LINE
  5
556
100
AcDbEntity
  8
0
  6
CONTINUOUS
 62
           2
100
AcDbLine
 10
-76.777900678969
 20
-1006.003509760698
 11
-76.777900678969
 21
-996.810209178091
  0
LINE
  5
557
100
AcDbEntity
  8
0
 62
           2
100
AcDbLine
 10
-76.777900678969
 20
-998.810209178091
 11
-80.277900678969
 21
-999.7480313516
  0
LINE
  5
558
100
AcDbEntity
  8
0
 62
           2
100
AcDbLine
 10
-76.777900678969
 20
-998.810209178091
 11
-80.277900678969
 21
-997.872387004582
  0
LINE
  5
559
100
AcDbEntity
  8
0
 62
           2
100
AcDbLine
 10
-88.177900674156
 20
-998.810209178091
 11
-84.677900674156
 21
-997.872387004582
  0
LINE
  5
55A
100
AcDbEntity
  8
0
 62
           2
100
AcDbLine
 10
-88.177900674156
 20
-998.810209178091
 11
-84.677900674156
 21
-999.7480313516
  0
TEXT
  5
55B
100
AcDbEntity
  8
0
 62
           3
100
AcDbText
 10
-86.567597137291
 20
-996.810209178091
 40
2.625
  1
11.4
 41
1.2
  7
CONVERTER_6
100
AcDbText
  0
ENDBLK
  5
55C
100
AcDbEntity
  8
0
100
AcDbBlockEnd
  0
BLOCK
  5
562
100
AcDbEntity
  8
0
100
AcDbBlockBegin
  2
*D69
 70
           1
 10
0.0
 20
0.0
 30
0.0
  3
*D69
  1

  0
LINE
  5
563
100
AcDbEntity
  8
0
  6
CONTINUOUS
 62
           2
100
AcDbLine
 10
-156.686776002374
 20
-993.605519899451
 11
-198.686776002365
 21
-993.605519899451
  0
LINE
  5
564
100
AcDbEntity
  8
0
  6
CONTINUOUS
 62
           2
100
AcDbLine
 10
-198.686776002365
 20
-1020.0035097606
 11
-198.686776002365
 21
-991.605519899451
  0
LINE
  5
565
100
AcDbEntity
  8
0
  6
CONTINUOUS
 62
           2
100
AcDbLine
 10
-156.686776002374
 20
-1063.5035097606
 11
-156.686776002374
 21
-991.605519899451
  0
LINE
  5
566
100
AcDbEntity
  8
0
 62
           2
100
AcDbLine
 10
-156.686776002374
 20
-993.605519899451
 11
-160.186776002374
 21
-994.54334207296
  0
LINE
  5
567
100
AcDbEntity
  8
0
 62
           2
100
AcDbLine
 10
-156.686776002374
 20
-993.605519899451
 11
-160.186776002374
 21
-992.667697725942
  0
LINE
  5
568
100
AcDbEntity
  8
0
 62
           2
100
AcDbLine
 10
-198.686776002365
 20
-993.605519899451
 11
-195.186776002365
 21
-992.667697725942
  0
LINE
  5
569
100
AcDbEntity
  8
0
 62
           2
100
AcDbLine
 10
-198.686776002365
 20
-993.605519899451
 11
-195.186776002365
 21
-994.54334207296
  0
TEXT
  5
56A
100
AcDbEntity
  8
0
 62
           3
100
AcDbText
 10
-180.026472463099
 20
-991.605519899451
 40
2.625
  1
42
 41
1.2
  7
CONVERTER_6
100
AcDbText
  0
ENDBLK
  5
56B
100
AcDbEntity
  8
0
100
AcDbBlockEnd
  0
BLOCK
  5
571
100
AcDbEntity
  8
0
100
AcDbBlockBegin
  2
*D72
 70
           1
 10
0.0
 20
0.0
 30
0.0
  3
*D72
  1

  0
LINE
  5
572
100
AcDbEntity
  8
0
  6
CONTINUOUS
 62
           2
100
AcDbLine
 10
-248.986776002367
 20
-1159.984880783541
 11
-261.986776002367
 21
-1159.984880783541
  0
LINE
  5
573
100
AcDbEntity
  8
0
  6
CONTINUOUS
 62
           2
100
AcDbLine
 10
-261.986776002367
 20
-1159.984880783541
 11
-269.953878658262
 21
-1159.984880783541
  0
LINE
  5
574
100
AcDbEntity
  8
0
  6
CONTINUOUS
 62
           2
100
AcDbLine
 10
-261.986776002367
 20
-1145.5035097606
 11
-261.986776002367
 21
-1161.984880783541
  0
LINE
  5
575
100
AcDbEntity
  8
0
  6
CONTINUOUS
 62
           2
100
AcDbLine
 10
-248.986776002367
 20
-1143.8035097606
 11
-248.986776002367
 21
-1161.984880783541
  0
LINE
  5
576
100
AcDbEntity
  8
0
 62
           2
100
AcDbLine
 10
-248.986776002367
 20
-1159.984880783541
 11
-252.486776002367
 21
-1160.92270295705
  0
LINE
  5
577
100
AcDbEntity
  8
0
 62
           2
100
AcDbLine
 10
-248.986776002367
 20
-1159.984880783541
 11
-252.486776002367
 21
-1159.047058610032
  0
LINE
  5
578
100
AcDbEntity
  8
0
 62
           2
100
AcDbLine
 10
-261.986776002367
 20
-1159.984880783541
 11
-258.486776002367
 21
-1159.047058610032
  0
LINE
  5
579
100
AcDbEntity
  8
0
 62
           2
100
AcDbLine
 10
-261.986776002367
 20
-1159.984880783541
 11
-258.486776002367
 21
-1160.92270295705
  0
TEXT
  5
57A
100
AcDbEntity
  8
0
 62
           3
100
AcDbText
 10
-269.953878658262
 20
-1157.984880783541
 40
2.625
  1
L
 41
1.2
  7
CONVERTER_6
100
AcDbText
  0
ENDBLK
  5
57B
100
AcDbEntity
  8
0
100
AcDbBlockEnd
  0
BLOCK
  5
581
100
AcDbEntity
  8
0
100
AcDbBlockBegin
  2
*D75
 70
           1
 10
0.0
 20
0.0
 30
0.0
  3
*D75
  1

  0
LINE
  5
582
100
AcDbEntity
  8
0
  6
CONTINUOUS
 62
           2
100
AcDbLine
 10
-273.486776002367
 20
-1004.086742295131
 11
-266.486776002367
 21
-1004.086742295131
  0
LINE
  5
583
100
AcDbEntity
  8
0
  6
CONTINUOUS
 62
           2
100
AcDbLine
 10
-266.486776002367
 20
-1004.086742295131
 11
-256.986776002367
 21
-1004.086742295131
  0
LINE
  5
584
100
AcDbEntity
  8
0
  6
CONTINUOUS
 62
           2
100
AcDbLine
 10
-256.986776002367
 20
-1004.086742295131
 11
-249.986776002367
 21
-1004.086742295131
  0
LINE
  5
585
100
AcDbEntity
  8
0
  6
CONTINUOUS
 62
           2
100
AcDbLine
 10
-256.986776002367
 20
-1019.0035097606
 11
-256.986776002367
 21
-1002.086742295131
  0
LINE
  5
586
100
AcDbEntity
  8
0
  6
CONTINUOUS
 62
           2
100
AcDbLine
 10
-266.486776002367
 20
-1020.0035097606
 11
-266.486776002367
 21
-1002.086742295131
  0
LINE
  5
587
100
AcDbEntity
  8
0
 62
           2
100
AcDbLine
 10
-266.486776002367
 20
-1004.086742295131
 11
-269.986776002367
 21
-1005.02456446864
  0
LINE
  5
588
100
AcDbEntity
  8
0
 62
           2
100
AcDbLine
 10
-266.486776002367
 20
-1004.086742295131
 11
-269.986776002367
 21
-1003.148920121622
  0
LINE
  5
589
100
AcDbEntity
  8
0
 62
           2
100
AcDbLine
 10
-256.986776002367
 20
-1004.086742295131
 11
-253.486776002367
 21
-1003.148920121622
  0
LINE
  5
58A
100
AcDbEntity
  8
0
 62
           2
100
AcDbLine
 10
-256.986776002367
 20
-1004.086742295131
 11
-253.486776002367
 21
-1005.02456446864
  0
TEXT
  5
58B
100
AcDbEntity
  8
0
 62
           3
100
AcDbText
 10
-264.701472463096
 20
-1002.086742295131
 40
2.625
  1
9.5
 41
1.2
  7
CONVERTER_6
100
AcDbText
  0
ENDBLK
  5
58C
100
AcDbEntity
  8
0
100
AcDbBlockEnd
  0
BLOCK
  5
592
100
AcDbEntity
  8
0
100
AcDbBlockBegin
  2
*D78
 70
           1
 10
0.0
 20
0.0
 30
0.0
  3
*D78
  1

  0
LINE
  5
593
100
AcDbEntity
  8
0
  6
CONTINUOUS
 62
           2
100
AcDbLine
 10
-41.277900681254
 20
-998.810209178091
 11
-76.777900678969
 21
-998.810209178091
  0
LINE
  5
594
100
AcDbEntity
  8
0
  6
CONTINUOUS
 62
           2
100
AcDbLine
 10
-76.777900678969
 20
-1006.003509760698
 11
-76.777900678969
 21
-996.810209178091
  0
LINE
  5
595
100
AcDbEntity
  8
0
  6
CONTINUOUS
 62
           2
100
AcDbLine
 10
-41.277900681254
 20
-1006.003509760455
 11
-41.277900681254
 21
-996.810209178091
  0
LINE
  5
596
100
AcDbEntity
  8
0
 62
           2
100
AcDbLine
 10
-41.277900681254
 20
-998.810209178091
 11
-44.777900681254
 21
-999.7480313516
  0
LINE
  5
597
100
AcDbEntity
  8
0
 62
           2
100
AcDbLine
 10
-41.277900681254
 20
-998.810209178091
 11
-44.777900681254
 21
-997.872387004582
  0
LINE
  5
598
100
AcDbEntity
  8
0
 62
           2
100
AcDbLine
 10
-76.777900678969
 20
-998.810209178091
 11
-73.277900678969
 21
-997.872387004582
  0
LINE
  5
599
100
AcDbEntity
  8
0
 62
           2
100
AcDbLine
 10
-76.777900678969
 20
-998.810209178091
 11
-73.277900678969
 21
-999.7480313516
  0
TEXT
  5
59A
100
AcDbEntity
  8
0
 62
           3
100
AcDbText
 10
-63.11759714084
 20
-996.810209178091
 40
2.625
  1
35.5
 41
1.2
  7
CONVERTER_6
100
AcDbText
  0
ENDBLK
  5
59B
100
AcDbEntity
  8
0
100
AcDbBlockEnd
  0
BLOCK
  5
5A1
100
AcDbEntity
  8
0
100
AcDbBlockBegin
  2
*D81
 70
           1
 10
0.0
 20
0.0
 30
0.0
  3
*D81
  1

  0
LINE
  5
5A2
100
AcDbEntity
  8
0
  6
CONTINUOUS
 62
           2
100
AcDbLine
 10
-276.593318809829
 20
-1019.7035097606
 11
-276.593318809829
 21
-1217.7035097606
  0
LINE
  5
5A3
100
AcDbEntity
  8
0
  6
CONTINUOUS
 62
           2
100
AcDbLine
 10
-258.886776002372
 20
-1217.7035097606
 11
-278.593318809829
 21
-1217.7035097606
  0
LINE
  5
5A4
100
AcDbEntity
  8
0
  6
CONTINUOUS
 62
           2
100
AcDbLine
 10
-259.686776002367
 20
-1019.7035097606
 11
-278.593318809829
 21
-1019.7035097606
  0
LINE
  5
5A5
100
AcDbEntity
  8
0
 62
           2
100
AcDbLine
 10
-276.593318809829
 20
-1019.7035097606
 11
-275.65549663632
 21
-1023.2035097606
  0
LINE
  5
5A6
100
AcDbEntity
  8
0
 62
           2
100
AcDbLine
 10
-276.593318809829
 20
-1019.7035097606
 11
-277.531140983338
 21
-1023.2035097606
  0
LINE
  5
5A7
100
AcDbEntity
  8
0
 62
           2
100
AcDbLine
 10
-276.593318809829
 20
-1217.7035097606
 11
-277.531140983338
 21
-1214.2035097606
  0
LINE
  5
5A8
100
AcDbEntity
  8
0
 62
           2
100
AcDbLine
 10
-276.593318809829
 20
-1217.7035097606
 11
-275.65549663632
 21
-1214.2035097606
  0
MTEXT
  5
5A9
100
AcDbEntity
  8
0
 62
           3
100
AcDbMText
 10
-278.593318809829
 20
-1122.168206221329
 30
0.0
 40
2.625
 41
0.0
 71
           7
 72
           1
  1
198
  7
CONVERTER_6
 11
0.0
 21
1.0
 31
0.0
  0
ENDBLK
  5
5AA
100
AcDbEntity
  8
0
100
AcDbBlockEnd
  0
BLOCK
  5
5B0
100
AcDbEntity
  8
0
100
AcDbBlockBegin
  2
*D84
 70
           1
 10
0.0
 20
0.0
 30
0.0
  3
*D84
  1

  0
LINE
  5
5B1
100
AcDbEntity
  8
0
  6
CONTINUOUS
 62
           2
100
AcDbLine
 10
-208.997109374839
 20
-1064.2035097606
 11
-208.997109374839
 21
-1079.2035097606
  0
LINE
  5
5B2
100
AcDbEntity
  8
0
  6
CONTINUOUS
 62
           2
100
AcDbLine
 10
-211.661222422843
 20
-1079.2035097606
 11
-206.997109374839
 21
-1079.2035097606
  0
LINE
  5
5B3
100
AcDbEntity
  8
0
  6
CONTINUOUS
 62
           2
100
AcDbLine
 10
-201.651897975904
 20
-1064.2035097606
 11
-210.997109374839
 21
-1064.2035097606
  0
LINE
  5
5B4
100
AcDbEntity
  8
0
 62
           2
100
AcDbLine
 10
-208.997109374839
 20
-1064.2035097606
 11
-208.05928720133
 21
-1067.7035097606
  0
LINE
  5
5B5
100
AcDbEntity
  8
0
 62
           2
100
AcDbLine
 10
-208.997109374839
 20
-1064.2035097606
 11
-209.934931548348
 21
-1067.7035097606
  0
LINE
  5
5B6
100
AcDbEntity
  8
0
 62
           2
100
AcDbLine
 10
-208.997109374839
 20
-1079.2035097606
 11
-209.934931548348
 21
-1075.7035097606
  0
LINE
  5
5B7
100
AcDbEntity
  8
0
 62
           2
100
AcDbLine
 10
-208.997109374839
 20
-1079.2035097606
 11
-208.05928720133
 21
-1075.7035097606
  0
MTEXT
  5
5B8
100
AcDbEntity
  8
0
 62
           3
100
AcDbMText
 10
-210.997109374839
 20
-1073.980706221329
 30
0.0
 40
2.625
 41
0.0
 71
           7
 72
           1
  1
15
  7
CONVERTER_6
 11
0.0
 21
1.0
 31
0.0
  0
ENDBLK
  5
5B9
100
AcDbEntity
  8
0
100
AcDbBlockEnd
  0
BLOCK
  5
5BF
100
AcDbEntity
  8
0
100
AcDbBlockBegin
  2
*D87
 70
           1
 10
0.0
 20
0.0
 30
0.0
  3
*D87
  1

  0
LINE
  5
5C0
100
AcDbEntity
  8
0
  6
CONTINUOUS
 62
           2
100
AcDbLine
 10
-132.242411442199
 20
-1095.7035097606
 11
-132.242411442199
 21
-1139.7035097606
  0
LINE
  5
5C1
100
AcDbEntity
  8
0
  6
CONTINUOUS
 62
           2
100
AcDbLine
 10
-126.881727844969
 20
-1139.7035097606
 11
-134.242411442199
 21
-1139.7035097606
  0
LINE
  5
5C2
100
AcDbEntity
  8
0
  6
CONTINUOUS
 62
           2
100
AcDbLine
 10
-116.47784028416
 20
-1095.7035097606
 11
-134.242411442199
 21
-1095.7035097606
  0
LINE
  5
5C3
100
AcDbEntity
  8
0
 62
           2
100
AcDbLine
 10
-132.242411442199
 20
-1095.7035097606
 11
-131.30458926869
 21
-1099.2035097606
  0
LINE
  5
5C4
100
AcDbEntity
  8
0
 62
           2
100
AcDbLine
 10
-132.242411442199
 20
-1095.7035097606
 11
-133.180233615708
 21
-1099.2035097606
  0
LINE
  5
5C5
100
AcDbEntity
  8
0
 62
           2
100
AcDbLine
 10
-132.242411442199
 20
-1139.7035097606
 11
-133.180233615708
 21
-1136.2035097606
  0
LINE
  5
5C6
100
AcDbEntity
  8
0
 62
           2
100
AcDbLine
 10
-132.242411442199
 20
-1139.7035097606
 11
-131.30458926869
 21
-1136.2035097606
  0
MTEXT
  5
5C7
100
AcDbEntity
  8
0
 62
           3
100
AcDbMText
 10
-134.242411442199
 20
-1119.980706221329
 30
0.0
 40
2.625
 41
0.0
 71
           7
 72
           1
  1
44
  7
CONVERTER_6
 11
0.0
 21
1.0
 31
0.0
  0
ENDBLK
  5
5C8
100
AcDbEntity
  8
0
100
AcDbBlockEnd
  0
BLOCK
  5
5CE
100
AcDbEntity
  8
0
100
AcDbBlockBegin
  2
*D90
 70
           1
 10
0.0
 20
0.0
 30
0.0
  3
*D90
  1

  0
LINE
  5
5CF
100
AcDbEntity
  8
0
  6
CONTINUOUS
 62
           2
100
AcDbLine
 10
-85.036335125288
 20
-1157.289221535711
 11
-111.277840284159
 21
-1157.289221535711
  0
LINE
  5
5D0
100
AcDbEntity
  8
0
  6
CONTINUOUS
 62
           2
100
AcDbLine
 10
-111.277840284159
 20
-1157.289221535711
 11
-117.881727844968
 21
-1157.289221535711
  0
LINE
  5
5D1
100
AcDbEntity
  8
0
  6
CONTINUOUS
 62
           2
100
AcDbLine
 10
-117.881727844968
 20
-1157.289221535711
 11
-124.881727844968
 21
-1157.289221535711
  0
LINE
  5
5D2
100
AcDbEntity
  8
0
  6
CONTINUOUS
 62
           2
100
AcDbLine
 10
-117.881727844969
 20
-1148.7035097606
 11
-117.881727844969
 21
-1159.289221535711
  0
LINE
  5
5D3
100
AcDbEntity
  8
0
  6
CONTINUOUS
 62
           2
100
AcDbLine
 10
-111.27784028416
 20
-1103.298653865304
 11
-111.27784028416
 21
-1159.289221535711
  0
LINE
  5
5D4
100
AcDbEntity
  8
0
 62
           2
100
AcDbLine
 10
-111.277840284159
 20
-1157.289221535711
 11
-107.777840284159
 21
-1156.351399362202
  0
LINE
  5
5D5
100
AcDbEntity
  8
0
 62
           2
100
AcDbLine
 10
-111.277840284159
 20
-1157.289221535711
 11
-107.777840284159
 21
-1158.22704370922
  0
LINE
  5
5D6
100
AcDbEntity
  8
0
 62
           2
100
AcDbLine
 10
-117.881727844968
 20
-1157.289221535711
 11
-121.381727844968
 21
-1158.22704370922
  0
LINE
  5
5D7
100
AcDbEntity
  8
0
 62
           2
100
AcDbLine
 10
-117.881727844968
 20
-1157.289221535711
 11
-121.381727844968
 21
-1156.351399362202
  0
MTEXT
  5
5D8
100
AcDbEntity
  8
0
 62
           3
100
AcDbMText
 10
-107.082620968204
 20
-1155.289221535711
 30
0.0
 40
2.625
 41
0.0
 71
           7
 72
           1
  1
\C3;6.6\C3;(設定寸法)
  7
CONVERTER_7
  0
ENDBLK
  5
5D9
100
AcDbEntity
  8
0
100
AcDbBlockEnd
  0
BLOCK
  5
5DF
100
AcDbEntity
  8
0
100
AcDbBlockBegin
  2
*D93
 70
           1
 10
0.0
 20
0.0
 30
0.0
  3
*D93
  1

  0
LINE
  5
5E0
100
AcDbEntity
  8
0
  6
CONTINUOUS
 62
           2
100
AcDbLine
 10
-132.242411442199
 20
-1095.7035097606
 11
-132.242411442199
 21
-1030.7035097606
  0
LINE
  5
5E1
100
AcDbEntity
  8
0
  6
CONTINUOUS
 62
           2
100
AcDbLine
 10
-116.47784028416
 20
-1030.7035097606
 11
-134.242411442199
 21
-1030.7035097606
  0
LINE
  5
5E2
100
AcDbEntity
  8
0
  6
CONTINUOUS
 62
           2
100
AcDbLine
 10
-116.47784028416
 20
-1095.7035097606
 11
-134.242411442199
 21
-1095.7035097606
  0
LINE
  5
5E3
100
AcDbEntity
  8
0
 62
           2
100
AcDbLine
 10
-132.242411442199
 20
-1095.7035097606
 11
-133.180233615708
 21
-1092.2035097606
  0
LINE
  5
5E4
100
AcDbEntity
  8
0
 62
           2
100
AcDbLine
 10
-132.242411442199
 20
-1095.7035097606
 11
-131.30458926869
 21
-1092.2035097606
  0
LINE
  5
5E5
100
AcDbEntity
  8
0
 62
           2
100
AcDbLine
 10
-132.242411442199
 20
-1030.7035097606
 11
-131.30458926869
 21
-1034.2035097606
  0
LINE
  5
5E6
100
AcDbEntity
  8
0
 62
           2
100
AcDbLine
 10
-132.242411442199
 20
-1030.7035097606
 11
-133.180233615708
 21
-1034.2035097606
  0
MTEXT
  5
5E7
100
AcDbEntity
  8
0
 62
           3
100
AcDbMText
 10
-134.242411442199
 20
-1065.480706221329
 30
0.0
 40
2.625
 41
0.0
 71
           7
 72
           1
  1
65
  7
CONVERTER_6
 11
0.0
 21
1.0
 31
0.0
  0
ENDBLK
  5
5E8
100
AcDbEntity
  8
0
100
AcDbBlockEnd
  0
BLOCK
  5
5EE
100
AcDbEntity
  8
0
100
AcDbBlockBegin
  2
*D96
 70
           1
 10
0.0
 20
0.0
 30
0.0
  3
*D96
  1

  0
LINE
  5
5EF
100
AcDbEntity
  8
0
  6
CONTINUOUS
 62
           2
100
AcDbLine
 10
-144.676312330738
 20
-1030.7035097606
 11
-144.676312330738
 21
-1139.7035097606
  0
LINE
  5
5F0
100
AcDbEntity
  8
0
  6
CONTINUOUS
 62
           2
100
AcDbLine
 10
-126.881727844968
 20
-1139.7035097606
 11
-146.676312330738
 21
-1139.7035097606
  0
LINE
  5
5F1
100
AcDbEntity
  8
0
  6
CONTINUOUS
 62
           2
100
AcDbLine
 10
-116.47784028416
 20
-1030.7035097606
 11
-146.676312330738
 21
-1030.7035097606
  0
LINE
  5
5F2
100
AcDbEntity
  8
0
 62
           2
100
AcDbLine
 10
-144.676312330738
 20
-1030.7035097606
 11
-143.738490157229
 21
-1034.2035097606
  0
LINE
  5
5F3
100
AcDbEntity
  8
0
 62
           2
100
AcDbLine
 10
-144.676312330738
 20
-1030.7035097606
 11
-145.614134504247
 21
-1034.2035097606
  0
LINE
  5
5F4
100
AcDbEntity
  8
0
 62
           2
100
AcDbLine
 10
-144.676312330738
 20
-1139.7035097606
 11
-145.614134504247
 21
-1136.2035097606
  0
LINE
  5
5F5
100
AcDbEntity
  8
0
 62
           2
100
AcDbLine
 10
-144.676312330738
 20
-1139.7035097606
 11
-143.738490157229
 21
-1136.2035097606
  0
MTEXT
  5
5F6
100
AcDbEntity
  8
0
 62
           3
100
AcDbMText
 10
-146.676312330738
 20
-1088.605706221329
 30
0.0
 40
2.625
 41
0.0
 71
           7
 72
           1
  1
109
  7
CONVERTER_6
 11
0.0
 21
1.0
 31
0.0
  0
ENDBLK
  5
5F7
100
AcDbEntity
  8
0
100
AcDbBlockEnd
  0
BLOCK
  5
5FD
100
AcDbEntity
  8
0
100
AcDbBlockBegin
  2
*D99
 70
           1
 10
0.0
 20
0.0
 30
0.0
  3
*D99
  1

  0
LINE
  5
5FE
100
AcDbEntity
  8
0
  6
CONTINUOUS
 62
           2
100
AcDbLine
 10
-64.877900674157
 20
-1166.202849610631
 11
63.285403791866
 21
-1166.202849610631
  0
LINE
  5
5FF
100
AcDbEntity
  8
0
  6
CONTINUOUS
 62
           2
100
AcDbLine
 10
63.285403791866
 20
-1141.4035097606
 11
63.285403791866
 21
-1168.202849610631
  0
LINE
  5
600
100
AcDbEntity
  8
0
  6
CONTINUOUS
 62
           2
100
AcDbLine
 10
-64.877900674157
 20
-1148.4035097606
 11
-64.877900674157
 21
-1168.202849610631
  0
LINE
  5
601
100
AcDbEntity
  8
0
 62
           2
100
AcDbLine
 10
-64.877900674157
 20
-1166.202849610631
 11
-61.377900674157
 21
-1165.265027437122
  0
LINE
  5
602
100
AcDbEntity
  8
0
 62
           2
100
AcDbLine
 10
-64.877900674157
 20
-1166.202849610631
 11
-61.377900674157
 21
-1167.14067178414
  0
LINE
  5
603
100
AcDbEntity
  8
0
 62
           2
100
AcDbLine
 10
63.285403791866
 20
-1166.202849610631
 11
59.785403791866
 21
-1167.14067178414
  0
LINE
  5
604
100
AcDbEntity
  8
0
 62
           2
100
AcDbLine
 10
63.285403791866
 20
-1166.202849610631
 11
59.785403791866
 21
-1165.265027437122
  0
MTEXT
  5
605
100
AcDbEntity
  8
0
 62
           3
100
AcDbMText
 10
-6.413444901876
 20
-1164.202849610631
 30
0.0
 40
2.625
 41
0.0
 71
           7
 72
           1
  1
\C3;(\C3;128\C3;)
  7
CONVERTER_6
  0
ENDBLK
  5
606
100
AcDbEntity
  8
0
100
AcDbBlockEnd
  0
BLOCK
  5
60C
100
AcDbEntity
  8
0
100
AcDbBlockBegin
  2
*D102
 70
           1
 10
0.0
 20
0.0
 30
0.0
  3
*D102
  1

  0
LINE
  5
60D
100
AcDbEntity
  8
0
  6
CONTINUOUS
 62
           2
100
AcDbLine
 10
-71.877900674158
 20
-1127.727010238631
 11
-64.877900674158
 21
-1127.727010238631
  0
LINE
  5
60E
100
AcDbEntity
  8
0
  6
CONTINUOUS
 62
           2
100
AcDbLine
 10
-64.877900674158
 20
-1127.727010238631
 11
-58.277900674157
 21
-1127.727010238631
  0
LINE
  5
60F
100
AcDbEntity
  8
0
  6
CONTINUOUS
 62
           2
100
AcDbLine
 10
-58.277900674157
 20
-1127.727010238631
 11
-51.277900674157
 21
-1127.727010238631
  0
LINE
  5
610
100
AcDbEntity
  8
0
  6
CONTINUOUS
 62
           2
100
AcDbLine
 10
-58.277900674157
 20
-1105.4035097606
 11
-58.277900674157
 21
-1129.727010238631
  0
LINE
  5
611
100
AcDbEntity
  8
0
  6
CONTINUOUS
 62
           2
100
AcDbLine
 10
-64.877900674158
 20
-1130.0035097606
 11
-64.877900674158
 21
-1125.727010238631
  0
LINE
  5
612
100
AcDbEntity
  8
0
 62
           2
100
AcDbLine
 10
-64.877900674158
 20
-1127.727010238631
 11
-68.377900674158
 21
-1128.66483241214
  0
LINE
  5
613
100
AcDbEntity
  8
0
 62
           2
100
AcDbLine
 10
-64.877900674158
 20
-1127.727010238631
 11
-68.377900674158
 21
-1126.789188065122
  0
LINE
  5
614
100
AcDbEntity
  8
0
 62
           2
100
AcDbLine
 10
-58.277900674157
 20
-1127.727010238631
 11
-54.777900674157
 21
-1126.789188065122
  0
LINE
  5
615
100
AcDbEntity
  8
0
 62
           2
100
AcDbLine
 10
-58.277900674157
 20
-1127.727010238631
 11
-54.777900674157
 21
-1128.66483241214
  0
TEXT
  5
616
100
AcDbEntity
  8
0
 62
           3
100
AcDbText
 10
-64.542597134887
 20
-1125.727010238631
 40
2.625
  1
6.6
 41
1.2
  7
CONVERTER_6
100
AcDbText
  0
ENDBLK
  5
617
100
AcDbEntity
  8
0
100
AcDbBlockEnd
  0
BLOCK
  5
61D
100
AcDbEntity
  8
0
100
AcDbBlockBegin
  2
*D105
 70
           1
 10
0.0
 20
0.0
 30
0.0
  3
*D105
  1

  0
LINE
  5
61E
100
AcDbEntity
  8
0
  6
CONTINUOUS
 62
           2
100
AcDbLine
 10
-1.037771704846
 20
-1008.209706191363
 11
-1.037771704846
 21
-974.82738493955
  0
LINE
  5
61F
100
AcDbEntity
  8
0
  6
CONTINUOUS
 62
           2
100
AcDbLine
 10
-1.037771704846
 20
-974.82738493955
 11
55.883514138071
 21
-974.82738493955
  0
LINE
  5
620
100
AcDbEntity
  8
0
  6
CONTINUOUS
 62
           2
100
AcDbLine
 10
34.159468728539
 20
-996.209596191363
 11
-3.037771704846
 21
-996.209596191363
  0
LINE
  5
621
100
AcDbEntity
  8
0
  6
CONTINUOUS
 62
           2
100
AcDbLine
 10
28.659198628098
 20
-1001.209706191363
 11
-3.037771704846
 21
-1001.209706191363
  0
LINE
  5
622
100
AcDbEntity
  8
0
 62
           2
100
AcDbLine
 10
-1.037771704846
 20
-1001.209706191363
 11
-0.099949531337
 21
-1004.709706191363
  0
LINE
  5
623
100
AcDbEntity
  8
0
 62
           2
100
AcDbLine
 10
-1.037771704846
 20
-1001.209706191363
 11
-1.975593878355
 21
-1004.709706191363
  0
LINE
  5
624
100
AcDbEntity
  8
0
 62
           2
100
AcDbLine
 10
-1.037771704846
 20
-996.209596191363
 11
-1.975593878355
 21
-992.709596191363
  0
LINE
  5
625
100
AcDbEntity
  8
0
 62
           2
100
AcDbLine
 10
-1.037771704846
 20
-996.209596191363
 11
-0.099949531337
 21
-992.709596191363
  0
MTEXT
  5
626
100
AcDbEntity
  8
0
 62
           3
100
AcDbMText
 10
4.462228295154
 20
-972.82738493955
 30
0.0
 40
2.625
 41
0.0
 71
           7
 72
           1
  1
\C3;5\C3;以上(5mm以下の場合はご相談下さい)
  7
CONVERTER_7
  0
ENDBLK
  5
627
100
AcDbEntity
  8
0
100
AcDbBlockEnd
  0
BLOCK
  5
62D
100
AcDbEntity
  8
0
100
AcDbBlockBegin
  2
*D108
 70
           1
 10
0.0
 20
0.0
 30
0.0
  3
*D108
  1

  0
LINE
  5
62E
100
AcDbEntity
  8
0
  6
CONTINUOUS
 62
           2
100
AcDbLine
 10
68.694590920913
 20
-1031.809706191309
 11
68.694590920913
 21
-1024.809706191309
  0
LINE
  5
62F
100
AcDbEntity
  8
0
  6
CONTINUOUS
 62
           2
100
AcDbLine
 10
68.694590920913
 20
-1024.809706191309
 11
68.694590920913
 21
-1018.209706191311
  0
LINE
  5
630
100
AcDbEntity
  8
0
  6
CONTINUOUS
 62
           2
100
AcDbLine
 10
68.694590920913
 20
-1018.209706191311
 11
68.694590920913
 21
-1011.209706191311
  0
LINE
  5
631
100
AcDbEntity
  8
0
  6
CONTINUOUS
 62
           2
100
AcDbLine
 10
38.45340083245
 20
-1018.209706191311
 11
70.694590920913
 21
-1018.209706191311
  0
LINE
  5
632
100
AcDbEntity
  8
0
  6
CONTINUOUS
 62
           2
100
AcDbLine
 10
56.469208806774
 20
-1024.809706191309
 11
70.694590920913
 21
-1024.809706191309
  0
LINE
  5
633
100
AcDbEntity
  8
0
 62
           2
100
AcDbLine
 10
68.694590920913
 20
-1024.809706191309
 11
69.632413094422
 21
-1028.309706191309
  0
LINE
  5
634
100
AcDbEntity
  8
0
 62
           2
100
AcDbLine
 10
68.694590920913
 20
-1024.809706191309
 11
67.756768747404
 21
-1028.309706191309
  0
LINE
  5
635
100
AcDbEntity
  8
0
 62
           2
100
AcDbLine
 10
68.694590920913
 20
-1018.209706191311
 11
67.756768747404
 21
-1014.709706191311
  0
LINE
  5
636
100
AcDbEntity
  8
0
 62
           2
100
AcDbLine
 10
68.694590920913
 20
-1018.209706191311
 11
69.632413094422
 21
-1014.709706191311
  0
MTEXT
  5
637
100
AcDbEntity
  8
0
 62
           3
100
AcDbMText
 10
66.694590920913
 20
-1024.388192664788
 30
0.0
 40
2.625
 41
0.0
 71
           7
 72
           1
  1
\C3;6.6\C3;(設定寸法)
  7
CONVERTER_7
 11
0.0
 21
1.0
 31
0.0
  0
ENDBLK
  5
638
100
AcDbEntity
  8
0
100
AcDbBlockEnd
  0
BLOCK
  5
63E
100
AcDbEntity
  8
0
100
AcDbBlockBegin
  2
*D111
 70
           1
 10
0.0
 20
0.0
 30
0.0
  3
*D111
  1

  0
LINE
  5
63F
100
AcDbEntity
  8
0
  6
CONTINUOUS
 62
           2
100
AcDbLine
 10
-110.40322065699
 20
-1028.904887924924
 11
-107.999210591973
 21
-1023.961133106479
  0
LINE
  5
640
100
AcDbEntity
  8
0
  6
CONTINUOUS
 62
           2
100
AcDbLine
 10
-107.999210591973
 20
-1023.961133106479
 11
-91.640424749056
 21
-1023.961133106479
  0
LINE
  5
641
100
AcDbEntity
  8
0
 62
           2
100
AcDbLine
 10
-110.40322065699
 20
-1028.904887924924
 11
-109.716030029071
 21
-1025.347180872618
  0
LINE
  5
642
100
AcDbEntity
  8
0
 62
           2
100
AcDbLine
 10
-110.40322065699
 20
-1028.904887924924
 11
-108.029242589817
 21
-1026.167418552364
  0
MTEXT
  5
643
100
AcDbEntity
  8
0
 62
           3
100
AcDbMText
 10
-100.402317670515
 20
-1021.961133106479
 30
0.0
 40
2.625
 41
0.0
 71
           7
 72
           1
  1
\C3;2-M\C3;4
  7
CONVERTER_6
  0
ENDBLK
  5
644
100
AcDbEntity
  8
0
100
AcDbBlockEnd
  0
BLOCK
  5
647
100
AcDbEntity
  8
0
100
AcDbBlockBegin
  2
*D112
 70
           1
 10
0.0
 20
0.0
 30
0.0
  3
*D112
  1

  0
LINE
  5
648
100
AcDbEntity
  8
0
  6
CONTINUOUS
 62
           2
100
AcDbLine
 10
-115.993673901343
 20
-1138.064835813178
 11
-110.725798487588
 21
-1133.492757654114
  0
LINE
  5
649
100
AcDbEntity
  8
0
  6
CONTINUOUS
 62
           2
100
AcDbLine
 10
-110.725798487588
 20
-1133.492757654114
 11
-98.867012644671
 21
-1133.492757654114
  0
LINE
  5
64A
100
AcDbEntity
  8
0
 62
           2
100
AcDbLine
 10
-115.993673901343
 20
-1138.064835813178
 11
-113.965112285485
 21
-1135.062428745542
  0
LINE
  5
64B
100
AcDbEntity
  8
0
 62
           2
100
AcDbLine
 10
-115.993673901343
 20
-1138.064835813178
 11
-112.73568447505
 21
-1136.478955828032
  0
MTEXT
  5
64C
100
AcDbEntity
  8
0
 62
           3
100
AcDbMText
 10
-103.32390556613
 20
-1131.492757654114
 30
0.0
 40
2.625
 41
0.0
 71
           7
 72
           1
  1
\C3;M\C3;5\C3;
  7
CONVERTER_6
  0
ENDBLK
  5
64D
100
AcDbEntity
  8
0
100
AcDbBlockEnd
  0
BLOCK
  5
650
100
AcDbEntity
  8
0
100
AcDbBlockBegin
  2
*D113
 70
           1
 10
0.0
 20
0.0
 30
0.0
  3
*D113
  1

  0
LINE
  5
651
100
AcDbEntity
  8
0
  6
CONTINUOUS
 62
           2
100
AcDbLine
 10
-112.451722790857
 20
-1025.88359599917
 11
-118.275873430238
 21
-1014.3734771075
  0
LINE
  5
652
100
AcDbEntity
  8
0
  6
CONTINUOUS
 62
           2
100
AcDbLine
 10
-118.275873430238
 20
-1014.3734771075
 11
-145.521597207485
 21
-1014.3734771075
  0
LINE
  5
653
100
AcDbEntity
  8
0
 62
           2
100
AcDbLine
 10
-112.451722790857
 20
-1025.88359599917
 11
-114.868744075295
 21
-1023.184055567967
  0
LINE
  5
654
100
AcDbEntity
  8
0
 62
           2
100
AcDbLine
 10
-112.451722790857
 20
-1025.88359599917
 11
-113.195154409066
 21
-1022.337214764987
  0
MTEXT
  5
655
100
AcDbEntity
  8
0
 62
           3
100
AcDbMText
 10
-147.704704286026
 20
-1012.3734771075
 30
0.0
 40
2.625
 41
0.0
 71
           7
 72
           1
  1
\C3;2-{\Fgdt;n}\C3;5.2\C3;畜\Fgdt;~}孔
  7
CONVERTER_7
  0
ENDBLK
  5
656
100
AcDbEntity
  8
0
100
AcDbBlockEnd
  0
BLOCK
  5
659
100
AcDbEntity
  8
0
100
AcDbBlockBegin
  2
*D114
 70
           1
 10
0.0
 20
0.0
 30
0.0
  3
*D114
  1

  0
LINE
  5
65A
100
AcDbEntity
  8
0
  6
CONTINUOUS
 62
           2
100
AcDbLine
 10
-52.377900674158
 20
-1123.318767764599
 11
-52.377900674158
 21
-1125.318767764599
  0
LINE
  5
65B
100
AcDbEntity
  8
0
  6
CONTINUOUS
 62
           2
100
AcDbLine
 10
13.060580483748
 20
-1087.862608635021
 11
14.736014523909
 21
-1088.954817762007
  0
LINE
  5
65C
100
AcDbEntity
  8
0
  6
CONTINUOUS
 62
           2
100
AcDbLine
 10
-52.377900674158
 20
-1113.87222791761
 11
-52.377900674158
 21
-1123.318767764599
  0
LINE
  5
65D
100
AcDbEntity
  8
0
  6
CONTINUOUS
 62
           2
100
AcDbLine
 10
5.14705327306
 20
-1082.703810115361
 11
13.060580483748
 21
-1087.862608635021
  0
ARC
  5
65E
100
AcDbEntity
  8
0
  6
CONTINUOUS
 62
           2
100
AcDbCircle
 10
-52.377900674158
 20
-1045.203509760601
 40
78.115258003998
100
AcDbArc
 50
-90.0
 51
-33.100177996729
  0
LINE
  5
65F
100
AcDbEntity
  8
0
 62
           2
100
AcDbLine
 10
-52.377900674158
 20
-1123.318767764599
 11
-48.899787015639
 21
-1122.302777701875
  0
LINE
  5
660
100
AcDbEntity
  8
0
 62
           2
100
AcDbLine
 10
-52.377900674158
 20
-1123.318767764599
 11
-48.857770857269
 21
-1124.177951389547
  0
LINE
  5
661
100
AcDbEntity
  8
0
 62
           2
100
AcDbLine
 10
13.060580483748
 20
-1087.862608635021
 11
11.857974272651
 21
-1091.280685393982
  0
LINE
  5
662
100
AcDbEntity
  8
0
 62
           2
100
AcDbLine
 10
13.060580483748
 20
-1087.862608635021
 11
10.310054574708
 21
-1090.221446834818
  0
MTEXT
  5
663
100
AcDbEntity
  8
0
 62
           3
100
AcDbMText
 10
-20.665999652363
 20
-1114.591205952945
 30
0.0
 40
2.625
 41
0.0
 71
           7
 72
           1
  1
\C3;(\C3;57{\Fgdt;~}\C3;)
  7
CONVERTER_6
 11
0.879233917536
 21
0.476390300335
 31
0.0
  0
ENDBLK
  5
664
100
AcDbEntity
  8
0
100
AcDbBlockEnd
  0
ENDSEC
  0
SECTION
  2
ENTITIES
  0
DIMENSION
  5
668
100
AcDbEntity
  8
0
100
AcDbDimension
  2
*D114
 10
-52.377900674159
 20
-1045.2035097606
 11
-16.951013079118
 21
-1110.587966884061
 31
0.0
 70
           2
  1
<>
  3
ME10_DIM_21
100
AcDb2LineAngularDimension
 13
-52.377900674158
 23
-1113.17222791761
 14
-52.377900674158
 24
-1039.17222791761
 15
4.560651359004
 25
-1082.321536920916
 16
-16.951013079118
 26
-1110.587966884061
  0
DIMENSION
  5
63C
100
AcDbEntity
  8
0
100
AcDbDimension
  2
*D108
 10
68.694590920913
 20
-1024.809706191309
 11
64.944590920913
 21
-1013.36504974333
 31
0.0
 53
90.0
  1
<>
  3
ME10_DIM_20
100
AcDbAlignedDimension
 13
37.75340083245
 23
-1018.209706191311
 14
55.769208806774
 24
-1024.809706191309
 50
90.0
100
AcDbRotatedDimension
  0
DIMENSION
  5
62B
100
AcDbEntity
  8
0
100
AcDbDimension
  2
*D105
 10
-1.037771704846
 20
-1001.209706191363
 11
30.172871216612
 21
-971.07738493955
 31
0.0
  1
<>
  3
ME10_DIM_19
100
AcDbAlignedDimension
 13
34.859468728539
 23
-996.209596191363
 14
29.359198628098
 24
-1001.209706191363
 50
90.0
100
AcDbRotatedDimension
  0
DIMENSION
  5
61B
100
AcDbEntity
  8
0
100
AcDbDimension
  2
*D102
 10
-64.877900674158
 20
-1127.727010238631
 11
-61.577900674158
 21
-1123.977010238631
 31
0.0
  1
<>
  3
ME10_DIM_18
100
AcDbAlignedDimension
 13
-58.277900674158
 23
-1104.7035097606
 14
-64.877900674158
 24
-1130.7035097606
100
AcDbRotatedDimension
  0
DIMENSION
  5
60A
100
AcDbEntity
  8
0
100
AcDbDimension
  2
*D99
 10
-64.877900674157
 20
-1166.202849610631
 11
-0.796248441147
 21
-1162.452849610631
 31
0.0
  1
<>
  3
ME10_DIM_17
100
AcDbAlignedDimension
 13
63.285403791865
 23
-1140.7035097606
 14
-64.877900674158
 24
-1147.7035097606
100
AcDbRotatedDimension
  0
DIMENSION
  5
5FB
100
AcDbEntity
  8
0
100
AcDbDimension
  2
*D96
 10
-144.676312330738
 20
-1030.7035097606
 11
-148.426312330738
 21
-1085.2035097606
 31
0.0
 53
90.0
  1
<>
  3
ME10_DIM_16
100
AcDbAlignedDimension
 13
-126.181727844969
 23
-1139.7035097606
 14
-115.77784028416
 24
-1030.7035097606
 50
90.0
100
AcDbRotatedDimension
  0
DIMENSION
  5
5EC
100
AcDbEntity
  8
0
100
AcDbDimension
  2
*D93
 10
-132.242411442199
 20
-1095.7035097606
 11
-135.992411442199
 21
-1063.2035097606
 31
0.0
 53
90.0
  1
<>
  3
ME10_DIM_15
100
AcDbAlignedDimension
 13
-115.77784028416
 23
-1030.7035097606
 14
-115.77784028416
 24
-1095.7035097606
 50
90.0
100
AcDbRotatedDimension
  0
DIMENSION
  5
5DD
100
AcDbEntity
  8
0
100
AcDbDimension
  2
*D90
 10
-111.277840284159
 20
-1157.289221535711
 11
-96.059478046746
 21
-1153.539221535711
 31
0.0
  1
<>
  3
ME10_DIM_14
100
AcDbAlignedDimension
 13
-117.881727844969
 23
-1148.0035097606
 14
-111.27784028416
 24
-1102.598653865304
100
AcDbRotatedDimension
  0
DIMENSION
  5
5CC
100
AcDbEntity
  8
0
100
AcDbDimension
  2
*D87
 10
-132.242411442199
 20
-1095.7035097606
 11
-135.992411442199
 21
-1117.7035097606
 31
0.0
 53
90.0
  1
<>
  3
ME10_DIM_13
100
AcDbAlignedDimension
 13
-126.181727844969
 23
-1139.7035097606
 14
-115.77784028416
 24
-1095.7035097606
 50
90.0
100
AcDbRotatedDimension
  0
DIMENSION
  5
5BD
100
AcDbEntity
  8
0
100
AcDbDimension
  2
*D84
 10
-208.997109374839
 20
-1064.2035097606
 11
-212.747109374839
 21
-1071.7035097606
 31
0.0
 53
90.0
  1
<>
  3
ME10_DIM_12
100
AcDbAlignedDimension
 13
-212.361222422843
 23
-1079.2035097606
 14
-200.951897975904
 24
-1064.2035097606
 50
90.0
100
AcDbRotatedDimension
  0
DIMENSION
  5
5AE
100
AcDbEntity
  8
0
100
AcDbDimension
  2
*D81
 10
-276.593318809829
 20
-1019.7035097606
 11
-280.343318809829
 21
-1118.7035097606
 31
0.0
 53
90.0
  1
<>
  3
ME10_DIM_11
100
AcDbAlignedDimension
 13
-258.186776002372
 23
-1217.7035097606
 14
-258.986776002367
 24
-1019.7035097606
 50
90.0
100
AcDbRotatedDimension
  0
DIMENSION
  5
59F
100
AcDbEntity
  8
0
100
AcDbDimension
  2
*D78
 10
-41.277900681254
 20
-998.810209178091
 11
-59.027900680111
 21
-995.060209178091
 31
0.0
  1
<>
  3
ME10_DIM_10
100
AcDbAlignedDimension
 13
-76.777900678969
 23
-1006.703509760698
 14
-41.277900681254
 24
-1006.703509760455
100
AcDbRotatedDimension
  0
DIMENSION
  5
590
100
AcDbEntity
  8
0
100
AcDbDimension
  2
*D75
 10
-266.486776002367
 20
-1004.086742295131
 11
-261.736776002367
 21
-1000.336742295131
 31
0.0
  1
<>
  3
ME10_DIM_9
100
AcDbAlignedDimension
 13
-256.986776002367
 23
-1019.7035097606
 14
-266.486776002367
 24
-1020.7035097606
100
AcDbRotatedDimension
  0
DIMENSION
  5
57F
100
AcDbEntity
  8
0
100
AcDbDimension
  2
*D72
 10
-248.986776002367
 20
-1159.984880783541
 11
-268.801682197533
 21
-1156.234880783541
 31
0.0
  1
<>
  3
ME10_DIM_8
100
AcDbAlignedDimension
 13
-261.986776002367
 23
-1144.8035097606
 14
-248.986776002367
 24
-1143.1035097606
100
AcDbRotatedDimension
  0
DIMENSION
  5
56F
100
AcDbEntity
  8
0
100
AcDbDimension
  2
*D69
 10
-156.686776002374
 20
-993.605519899451
 11
-177.68677600237
 21
-989.855519899451
 31
0.0
  1
<>
  3
ME10_DIM_7
100
AcDbAlignedDimension
 13
-198.686776002365
 23
-1020.7035097606
 14
-156.686776002374
 24
-1064.2035097606
100
AcDbRotatedDimension
  0
DIMENSION
  5
560
100
AcDbEntity
  8
0
100
AcDbDimension
  2
*D66
 10
-76.777900678969
 20
-998.810209178091
 11
-82.477900676562
 21
-995.060209178091
 31
0.0
  1
<>
  3
ME10_DIM_6
100
AcDbAlignedDimension
 13
-88.177900674156
 23
-1064.2035097606
 14
-76.777900678969
 24
-1006.703509760698
100
AcDbRotatedDimension
  0
DIMENSION
  5
551
100
AcDbEntity
  8
0
100
AcDbDimension
  2
*D63
 10
-41.277900681254
 20
-988.662739119621
 11
-64.727900677705
 21
-984.912739119621
 31
0.0
  1
<>
  3
ME10_DIM_5
100
AcDbAlignedDimension
 13
-88.177900674156
 23
-1064.2035097606
 14
-41.277900681254
 24
-1006.703509760455
100
AcDbRotatedDimension
  0
DIMENSION
  5
542
100
AcDbEntity
  8
0
100
AcDbDimension
  2
*D60
 10
29.359198628098
 20
-985.561083355981
 11
34.109198628099
 21
-981.811083355981
 31
0.0
  1
<>
  3
ME10_DIM_4
100
AcDbAlignedDimension
 13
38.859198628099
 23
-1001.209706191363
 14
29.359198628098
 24
-1001.209706192181
100
AcDbRotatedDimension
  0
DIMENSION
  5
531
100
AcDbEntity
  8
0
100
AcDbDimension
  2
*D57
 10
-1.037771704846
 20
-1037.209706191363
 11
-4.787771704846
 21
-1019.209706191363
 31
0.0
 53
90.0
  1
<>
  3
ME10_DIM_3
100
AcDbAlignedDimension
 13
29.359198628098
 23
-1001.209706191363
 14
29.359198628098
 24
-1037.209706191363
 50
90.0
100
AcDbRotatedDimension
  0
DIMENSION
  5
521
100
AcDbEntity
  8
0
100
AcDbDimension
  2
*D54
 10
35.359198628098
 20
-1065.12343463435
 11
19.143833350002
 21
-1061.37343463435
 31
0.0
  1
<>
  3
ME10_DIM_2
100
AcDbAlignedDimension
 13
29.359198628098
 23
-1038.959706191363
 14
35.359198628098
 24
-1029.909706191309
100
AcDbRotatedDimension
  0
DIMENSION
  5
510
100
AcDbEntity
  8
0
100
AcDbDimension
  2
*D51
 10
53.35922862803
 20
-1060.65970581764
 11
63.863082211837
 21
-1056.90970581764
 31
0.0
  1
<>
  3
ME10_DIM_1
100
AcDbAlignedDimension
 13
55.359198628095
 23
-1047.609706191362
 14
53.35922862803
 24
-1040.609703559791
100
AcDbRotatedDimension
  0
DIMENSION
  5
4FF
100
AcDbEntity
  8
0
100
AcDbDimension
  2
*D48
 10
29.359198628098
 20
-1074.34059657882
 11
50.359198628096
 21
-1070.59059657882
 31
0.0
  1
<>
  3
ME10_DIM_0
100
AcDbAlignedDimension
 13
71.359198628094
 23
-1043.109706191361
 14
29.359198628098
 24
-1038.959706191363
100
AcDbRotatedDimension
  0
MTEXT
  5
4EF
100
AcDbEntity
  8
1
 62
           3
100
AcDbMText
 10
74.079369800747
 20
-1236.109623407273
 30
0.0
 40
3.5
 41
0.0
 71
           5
 72
           1
  1
2008.10.16
  7
CONVERTER_5
  0
MTEXT
  5
4EE
100
AcDbEntity
  8
1
 62
           3
100
AcDbMText
 10
26.079369800747
 20
-1236.109623407273
 30
0.0
 40
3.5
 41
0.0
 71
           5
 72
           1
  1
Ver.2.0
  7
CONVERTER_5
  0
MTEXT
  5
4EC
100
AcDbEntity
  8
1
 62
           3
100
AcDbMText
 10
-21.920630199253
 20
-1236.109623407273
 30
0.0
 40
3.5
 41
0.0
 71
           5
 72
           1
  1
標準開口量
  7
CONVERTER_4
  0
MTEXT
  5
4EB
100
AcDbEntity
  8
1
 62
           3
100
AcDbMText
 10
-69.920630199253
 20
-1236.109623407273
 30
0.0
 40
3.5
 41
0.0
 71
           5
 72
           1
  1
固定式操作ボタン
  7
CONVERTER_4
  0
MTEXT
  5
4EA
100
AcDbEntity
  8
1
 62
           3
100
AcDbMText
 10
-117.920630199253
 20
-1236.109623407273
 30
0.0
 40
3.5
 41
0.0
 71
           5
 72
           1
  1
内観右吊元用
  7
CONVERTER_4
  0
MTEXT
  5
4E9
100
AcDbEntity
  8
1
 62
           3
100
AcDbMText
 10
-165.920630199253
 20
-1236.109623407273
 30
0.0
 40
3.5
 41
0.0
 71
           5
 72
           1
  1
開き窓用
  7
CONVERTER_4
  0
MTEXT
  5
4E8
100
AcDbEntity
  8
1
 62
           3
100
AcDbMText
 10
-213.920630199253
 20
-1236.109623407273
 30
0.0
 40
3.5
 41
0.0
 71
           5
 72
           1
  1
セーフティ・ストッパー
  7
CONVERTER_4
  0
MTEXT
  5
4E6
100
AcDbEntity
  8
1
 62
           3
100
AcDbMText
 10
-190.754728607558
 20
-1209.77627839131
 30
0.0
 40
3.5
 41
0.0
 71
           5
 72
           1
  1
標準ストッパー
  7
CONVERTER_3
  0
MTEXT
  5
4E5
100
AcDbEntity
  8
1
 62
           3
100
AcDbMText
 10
-214.180950759348
 20
-1209.77627839131
 30
0.0
 40
3.5
 41
0.0
 71
           5
 72
           1
  1
強力ストッパー
  7
CONVERTER_3
  0
MTEXT
  5
4E4
100
AcDbEntity
  8
1
 62
           3
100
AcDbMText
 10
-217.73420014702
 20
-1064.2035097606
 30
0.0
 40
3.5
 41
0.0
 71
           5
 72
           1
  1
半開
  7
CONVERTER_3
  0
MTEXT
  5
4E3
100
AcDbEntity
  8
1
 62
           3
100
AcDbMText
 10
-217.83420014702
 20
-1079.2035097606
 30
0.0
 40
3.5
 41
0.0
 71
           5
 72
           1
  1
全開
  7
CONVERTER_3
  0
MTEXT
  5
4E2
100
AcDbEntity
  8
1
 62
           3
100
AcDbMText
 10
-170.474508156925
 20
-1198.632970307786
 30
0.0
 40
4.0
 41
0.0
 71
           5
 72
           1
  1
換気位置
  7
CONVERTER_3
  0
MTEXT
  5
4E1
100
AcDbEntity
  8
1
 62
           3
100
AcDbMText
 10
-242.863104927469
 20
-1198.632970307786
 30
0.0
 40
4.0
 41
0.0
 71
           5
 72
           1
  1
全開位置
  7
CONVERTER_3
  0
MTEXT
  5
4E0
100
AcDbEntity
  8
1
 62
           3
100
AcDbMText
 10
-233.90931486454
 20
-1010.45705167391
 30
0.0
 40
4.0
 41
0.0
 71
           5
 72
           1
  1
2-M4 トラスネジ
  7
CONVERTER_3
  0
MTEXT
  5
4DF
100
AcDbEntity
  8
1
 62
           3
100
AcDbMText
 10
-229.693010479117
 20
-1016.687027002541
 30
0.0
 40
3.5
 41
0.0
 71
           5
 72
           1
  1
(オプション、緩み止め加工品)
  7
CONVERTER_3
  0
MTEXT
  5
4DE
100
AcDbEntity
  8
1
 62
           3
100
AcDbMText
 10
-135.694179721484
 20
-1017.704037254319
 30
0.0
 40
4.0
 41
0.0
 71
           5
 72
           1
  1
(本体取付用孔)
  7
CONVERTER_3
  0
MTEXT
  5
4DD
100
AcDbEntity
  8
1
 62
           3
100
AcDbMText
 10
-117.662335261463
 20
-1170.847131327302
 30
0.0
 40
4.0
 41
0.0
 71
           5
 72
           1
  1
取付位置関係図
  7
CONVERTER_3
  0
MTEXT
  5
4DC
100
AcDbEntity
  8
1
 62
           3
100
AcDbMText
 10
-144.06302546239
 20
-1153.475122320529
 30
0.0
 40
4.0
 41
0.0
 71
           5
 72
           1
  1
ストッパーピン
  7
CONVERTER_3
  0
MTEXT
  5
4DB
100
AcDbEntity
  8
1
 62
           3
100
AcDbMText
 10
-22.807553886191
 20
-1148.639671764972
 30
0.0
 40
4.0
 41
0.0
 71
           5
 72
           1
  1
ストッパーピン位置
  7
CONVERTER_3
  0
MTEXT
  5
4DA
100
AcDbEntity
  8
1
 62
           3
100
AcDbMText
 10
-242.41001357099
 20
-1123.865673199514
 30
0.0
 40
3.5
 41
0.0
 71
           4
 72
           1
  1
標準品3種類\P(L=13、L=10、L=7)
  7
CONVERTER_3
  0
MTEXT
  5
4D9
100
AcDbEntity
  8
1
 62
           3
100
AcDbMText
 10
-228.06302546239
 20
-1114.475122320529
 30
0.0
 40
4.0
 41
0.0
 71
           5
 72
           1
  1
ストッパーピン
  7
CONVERTER_3
  0
LEADER
  5
4D7
100
AcDbEntity
  8
1
  6
CONTINUOUS
 62
           2
100
AcDbLeader
  3
Standard
 71
           0
 73
           3
 74
           0
 75
           0
 40
0.0
 76
           2
 10
-202.686776002365
 20
-1028.703509760599
 30
0.0
 10
-208.927243041952
 20
-1013.95705167391
 30
0.0
 77
           2
  0
LEADER
  5
4D4
100
AcDbEntity
  8
1
  6
CONTINUOUS
 62
           2
100
AcDbLeader
  3
Standard
 71
           0
 73
           3
 74
           0
 75
           0
 40
0.0
 76
           2
 10
-121.28434244589
 20
-1144.024645476775
 30
0.0
 10
-132.773532444103
 20
-1155.97537232053
 30
0.0
 77
           2
  0
LEADER
  5
4D1
100
AcDbEntity
  8
1
  6
CONTINUOUS
 62
           2
100
AcDbLeader
  3
Standard
 71
           0
 73
           3
 74
           0
 75
           0
 40
0.0
 76
           2
 10
-64.881727844969
 20
-1139.834741778822
 30
0.0
 10
-38.529004020301
 20
-1152.639671764972
 30
0.0
 77
           2
  0
LEADER
  5
4CE
100
AcDbEntity
  8
1
  6
CONTINUOUS
 62
           2
100
AcDbLeader
  3
Standard
 71
           0
 73
           3
 74
           0
 75
           0
 40
0.0
 76
           3
 10
-253.250898978109
 20
-1136.3035097606
 30
0.0
 10
-239.305263104189
 20
-1117.432380886481
 30
0.0
 10
-206.635563909941
 20
-1117.432380886481
 30
0.0
 77
           2
  0
CIRCLE
  5
4AD
100
AcDbEntity
  8
1
  6
CONTINUOUS
 62
           4
100
AcDbCircle
 10
-111.27784028416
 20
-1028.2035097606
 40
2.6
  0
CIRCLE
  5
4AC
100
AcDbEntity
  8
1
  6
CONTINUOUS
 62
           7
100
AcDbCircle
 10
-117.881727844969
 20
-1139.7035097606
 40
2.0
  0
CIRCLE
  5
4AB
100
AcDbEntity
  8
1
  6
CONTINUOUS
 62
           2
100
AcDbCircle
 10
-117.881727844969
 20
-1139.7035097606
 40
2.5
  0
CIRCLE
  5
4AA
100
AcDbEntity
  8
1
  6
CONTINUOUS
 62
           7
100
AcDbCircle
 10
-111.27784028416
 20
-1095.7035097606
 40
1.6
  0
CIRCLE
  5
4A9
100
AcDbEntity
  8
1
  6
CONTINUOUS
 62
           2
100
AcDbCircle
 10
-111.27784028416
 20
-1095.7035097606
 40
2.0
  0
CIRCLE
  5
4A8
100
AcDbEntity
  8
1
  6
CONTINUOUS
 62
           7
100
AcDbCircle
 10
-111.27784028416
 20
-1030.7035097606
 40
1.6
  0
CIRCLE
  5
4A7
100
AcDbEntity
  8
1
  6
CONTINUOUS
 62
           2
100
AcDbCircle
 10
-111.27784028416
 20
-1030.7035097606
 40
2.0
  0
CIRCLE
  5
4A6
100
AcDbEntity
  8
1
  6
CENTER_DASH_DASH
 62
           2
100
AcDbCircle
 10
-117.881727844969
 20
-1139.7035097606
 40
5.5
  0
CIRCLE
  5
4A5
100
AcDbEntity
  8
1
  6
CENTER_DASH_DASH
 62
           2
100
AcDbCircle
 10
-117.881727844969
 20
-1139.7035097606
 40
3.5
  0
ARC
  5
4A4
100
AcDbEntity
  8
1
  6
CENTER_DASH_DASH
 62
           2
100
AcDbCircle
 10
-111.27784028416
 20
-1098.2035097606
 40
2.600000000001
100
AcDbArc
 50
180.0
 51
0.0
  0
ARC
  5
4A3
100
AcDbEntity
  8
1
  6
CENTER_DASH_DASH
 62
           2
100
AcDbCircle
 10
-111.27784028416
 20
-1093.2035097606
 40
2.6
100
AcDbArc
 50
0.0
 51
180.0
  0
ARC
  5
4A2
100
AcDbEntity
  8
1
  6
CENTER_DASH_DASH
 62
           2
100
AcDbCircle
 10
-111.27784028416
 20
-1033.2035097606
 40
2.600000000001
100
AcDbArc
 50
180.0
 51
0.0
  0
ARC
  5
4A1
100
AcDbEntity
  8
1
  6
CENTER_DASH_DASH
 62
           2
100
AcDbCircle
 10
-111.27784028416
 20
-1028.2035097606
 40
2.6
100
AcDbArc
 50
0.0
 51
180.0
  0
LINE
  5
4A0
100
AcDbEntity
  8
1
  6
CONTINUOUS
 62
           4
100
AcDbLine
 10
-213.361222422843
 20
-1079.2035097606
 11
-212.361222422843
 21
-1079.2035097606
  0
LINE
  5
49F
100
AcDbEntity
  8
1
  6
CONTINUOUS
 62
           2
100
AcDbLine
 10
-222.355396890767
 20
-1079.2035097606
 11
-223.887642841918
 21
-1079.2035097606
  0
LINE
  5
49E
100
AcDbEntity
  8
1
  6
CONTINUOUS
 62
           2
100
AcDbLine
 10
-248.927243041952
 20
-1013.95705167391
 11
-208.927243041952
 21
-1013.95705167391
  0
LINE
  5
49D
100
AcDbEntity
  8
1
  6
CONTINUOUS
 62
           2
100
AcDbLine
 10
-154.773532444103
 20
-1155.975122320529
 11
-132.773532444103
 21
-1155.975122320529
  0
LINE
  5
49C
100
AcDbEntity
  8
1
  6
DASH_CENTER
 62
           1
100
AcDbLine
 10
-114.47784028416
 20
-1095.7035097606
 11
-108.07784028416
 21
-1095.7035097606
  0
LINE
  5
49B
100
AcDbEntity
  8
1
  6
DASH_CENTER
 62
           1
100
AcDbLine
 10
-111.27784028416
 20
-1092.5035097606
 11
-111.27784028416
 21
-1098.9035097606
  0
LINE
  5
49A
100
AcDbEntity
  8
1
  6
DASH_CENTER
 62
           1
100
AcDbLine
 10
-114.47784028416
 20
-1030.7035097606
 11
-108.07784028416
 21
-1030.7035097606
  0
LINE
  5
499
100
AcDbEntity
  8
1
  6
DASH_CENTER
 62
           1
100
AcDbLine
 10
-111.27784028416
 20
-1027.5035097606
 11
-111.27784028416
 21
-1033.9035097606
  0
LINE
  5
498
100
AcDbEntity
  8
1
  6
DASH_CENTER
 62
           1
100
AcDbLine
 10
-111.27784028416
 20
-1038.080236488265
 11
-111.27784028416
 21
-1023.727308399787
  0
LINE
  5
497
100
AcDbEntity
  8
1
  6
DASH_CENTER
 62
           1
100
AcDbLine
 10
-111.27784028416
 20
-1102.598653865304
 11
-111.27784028416
 21
-1088.853719601256
  0
LINE
  5
496
100
AcDbEntity
  8
1
  6
DASH_CENTER
 62
           1
100
AcDbLine
 10
-115.77784028416
 20
-1095.7035097606
 11
-106.77784028416
 21
-1095.7035097606
  0
LINE
  5
495
100
AcDbEntity
  8
1
  6
CENTER_DASH_DASH
 62
           2
100
AcDbLine
 10
-113.877840284161
 20
-1098.2035097606
 11
-113.877840284161
 21
-1093.2035097606
  0
LINE
  5
494
100
AcDbEntity
  8
1
  6
CENTER_DASH_DASH
 62
           2
100
AcDbLine
 10
-108.67784028416
 20
-1093.2035097606
 11
-108.67784028416
 21
-1098.2035097606
  0
LINE
  5
493
100
AcDbEntity
  8
1
  6
DASH_CENTER
 62
           4
100
AcDbLine
 10
-115.2371630111
 20
-1093.2035097606
 11
-107.29817892069
 21
-1093.2035097606
  0
LINE
  5
492
100
AcDbEntity
  8
1
  6
DASH_CENTER
 62
           4
100
AcDbLine
 10
-115.2371630111
 20
-1098.2035097606
 11
-107.29817892069
 21
-1098.2035097606
  0
LINE
  5
491
100
AcDbEntity
  8
1
  6
DASH_CENTER
 62
           4
100
AcDbLine
 10
-115.2371630111
 20
-1033.2035097606
 11
-107.29817892069
 21
-1033.2035097606
  0
LINE
  5
490
100
AcDbEntity
  8
1
  6
DASH_CENTER
 62
           1
100
AcDbLine
 10
-115.77784028416
 20
-1030.7035097606
 11
-106.77784028416
 21
-1030.7035097606
  0
LINE
  5
48F
100
AcDbEntity
  8
1
  6
DASH_CENTER
 62
           4
100
AcDbLine
 10
-115.2371630111
 20
-1028.2035097606
 11
-107.29817892069
 21
-1028.2035097606
  0
LINE
  5
48E
100
AcDbEntity
  8
1
  6
CENTER_DASH_DASH
 62
           2
100
AcDbLine
 10
-113.877840284161
 20
-1033.2035097606
 11
-113.877840284161
 21
-1028.2035097606
  0
LINE
  5
48D
100
AcDbEntity
  8
1
  6
CENTER_DASH_DASH
 62
           2
100
AcDbLine
 10
-108.67784028416
 20
-1028.2035097606
 11
-108.67784028416
 21
-1033.2035097606
  0
LINE
  5
48C
100
AcDbEntity
  8
1
  6
DASH_CENTER
 62
           1
100
AcDbLine
 10
-126.181727844969
 20
-1139.7035097606
 11
-109.581727844969
 21
-1139.7035097606
  0
LINE
  5
48B
100
AcDbEntity
  8
1
  6
DASH_CENTER
 62
           1
100
AcDbLine
 10
-117.881727844969
 20
-1148.0035097606
 11
-117.881727844969
 21
-1131.403509760601
  0
LINE
  5
48A
100
AcDbEntity
  8
1
  6
CONTINUOUS
 62
           2
100
AcDbLine
 10
-38.529004020301
 20
-1152.639671764972
 11
-8.529004020301
 21
-1152.639671764972
  0
INSERT
  5
A2
100
AcDbEntity
  8
0
100
AcDbBlockReference
  2
M05__M_D8_MI
 10
0.0
 20
0.0
  0
INSERT
  5
A3
100
AcDbEntity
  8
0
100
AcDbBlockReference
  2
_S____1
 10
0.0
 20
0.0
  0
INSERT
  5
A4
100
AcDbEntity
  8
0
100
AcDbBlockReference
  2
_S____2
 10
0.0
 20
0.0
  0
INSERT
  5
A5
100
AcDbEntity
  8
0
100
AcDbBlockReference
  2
______3
 10
0.0
 20
0.0
  0
INSERT
  5
A6
100
AcDbEntity
  8
0
100
AcDbBlockReference
  2
____1
 10
0.0
 20
0.0
  0
INSERT
  5
A7
100
AcDbEntity
  8
0
100
AcDbBlockReference
  2
______5
 10
0.0
 20
0.0
  0
INSERT
  5
A8
100
AcDbEntity
  8
0
100
AcDbBlockReference
  2
_X_G_B_P____6
 10
0.0
 20
0.0
  0
INSERT
  5
A9
100
AcDbEntity
  8
0
100
AcDbBlockReference
  2
_X_G_B_P____7
 10
0.0
 20
0.0
  0
INSERT
  5
AA
100
AcDbEntity
  8
0
100
AcDbBlockReference
  2
_X___X__10
 10
0.0
 20
0.0
  0
INSERT
  5
AB
100
AcDbEntity
  8
0
100
AcDbBlockReference
  2
A__12
 10
0.0
 20
0.0
  0
INSERT
  5
AC
100
AcDbEntity
  8
0
100
AcDbBlockReference
  2
X_A______13
 10
0.0
 20
0.0
  0
INSERT
  5
AD
100
AcDbEntity
  8
0
100
AcDbBlockReference
  2
_X___X__16
 10
0.0
 20
0.0
  0
INSERT
  5
AE
100
AcDbEntity
  8
0
100
AcDbBlockReference
  2
A__17
 10
0.0
 20
0.0
  0
INSERT
  5
AF
100
AcDbEntity
  8
0
100
AcDbBlockReference
  2
X_A______19
 10
0.0
 20
0.0
  0
INSERT
  5
B0
100
AcDbEntity
  8
0
100
AcDbBlockReference
  2
X_A______20
 10
0.0
 20
0.0
  0
INSERT
  5
B1
100
AcDbEntity
  8
0
100
AcDbBlockReference
  2
_G_E
 10
0.0
 20
0.0
  0
INSERT
  5
B2
100
AcDbEntity
  8
0
100
AcDbBlockReference
  2
___Q_E
 10
0.0
 20
0.0
  0
INSERT
  5
B3
100
AcDbEntity
  8
0
100
AcDbBlockReference
  2
_G_E_P_B_L__
 10
0.0
 20
0.0
  0
INSERT
  5
B4
100
AcDbEntity
  8
0
100
AcDbBlockReference
  2
SKB_A3_MI
 10
0.0
 20
0.0
  0
INSERT
  5
B5
100
AcDbEntity
  8
0
100
AcDbBlockReference
  2
X_A______21
 10
0.0
 20
0.0
  0
INSERT
  5
B6
100
AcDbEntity
  8
0
100
AcDbBlockReference
  2
____
 10
0.0
 20
0.0
  0
POLYLINE
  5
4AE
100
AcDbEntity
  8
0
 62
           3
100
AcDb2dPolyline
 66
           1
 10
0.0
 20
0.0
 30
0.0
 70
           1
  0
VERTEX
  5
4AF
100
AcDbEntity
  8
0
100
AcDbVertex
100
AcDb2dVertex
 10
-130.151750264201
 20
-1166.847131327302
  0
VERTEX
  5
4B0
100
AcDbEntity
  8
0
100
AcDbVertex
100
AcDb2dVertex
 10
-130.151750264201
 20
-1174.847131327302
  0
VERTEX
  5
4B1
100
AcDbEntity
  8
0
100
AcDbVertex
100
AcDb2dVertex
 10
-105.172920258725
 20
-1174.847131327302
  0
VERTEX
  5
4B2
100
AcDbEntity
  8
0
100
AcDbVertex
100
AcDb2dVertex
 10
-105.172920258725
 20
-1166.847131327302
  0
SEQEND
  5
4B3
100
AcDbEntity
  8
0
  0
POLYLINE
  5
4B4
100
AcDbEntity
  8
0
 62
           3
100
AcDb2dPolyline
 66
           1
 10
0.0
 20
0.0
 30
0.0
 70
           1
  0
VERTEX
  5
4B5
100
AcDbEntity
  8
0
100
AcDbVertex
100
AcDb2dVertex
 10
-250.894186596874
 20
-1194.632970307786
  0
VERTEX
  5
4B6
100
AcDbEntity
  8
0
100
AcDbVertex
100
AcDb2dVertex
 10
-250.894186596874
 20
-1202.632970307786
  0
VERTEX
  5
4B7
100
AcDbEntity
  8
0
100
AcDbVertex
100
AcDb2dVertex
 10
-234.832023258064
 20
-1202.632970307786
  0
VERTEX
  5
4B8
100
AcDbEntity
  8
0
100
AcDbVertex
100
AcDb2dVertex
 10
-234.832023258064
 20
-1194.632970307786
  0
SEQEND
  5
4B9
100
AcDbEntity
  8
0
  0
POLYLINE
  5
4BA
100
AcDbEntity
  8
0
 62
           3
100
AcDb2dPolyline
 66
           1
 10
0.0
 20
0.0
 30
0.0
 70
           1
  0
VERTEX
  5
4BB
100
AcDbEntity
  8
0
100
AcDbVertex
100
AcDb2dVertex
 10
-178.50558982633
 20
-1194.632970307786
  0
VERTEX
  5
4BC
100
AcDbEntity
  8
0
100
AcDbVertex
100
AcDb2dVertex
 10
-178.50558982633
 20
-1202.632970307786
  0
VERTEX
  5
4BD
100
AcDbEntity
  8
0
100
AcDbVertex
100
AcDb2dVertex
 10
-162.443426487521
 20
-1202.632970307786
  0
VERTEX
  5
4BE
100
AcDbEntity
  8
0
100
AcDbVertex
100
AcDb2dVertex
 10
-162.443426487521
 20
-1194.632970307786
  0
SEQEND
  5
4BF
100
AcDbEntity
  8
0
  0
POLYLINE
  5
4C0
100
AcDbEntity
  8
0
 62
           3
100
AcDb2dPolyline
 66
           1
 10
0.0
 20
0.0
 30
0.0
 70
           1
  0
VERTEX
  5
4C1
100
AcDbEntity
  8
0
100
AcDbVertex
100
AcDb2dVertex
 10
-222.23639660775
 20
-1075.7035097606
  0
VERTEX
  5
4C2
100
AcDbEntity
  8
0
100
AcDbVertex
100
AcDb2dVertex
 10
-222.23639660775
 20
-1082.7035097606
  0
VERTEX
  5
4C3
100
AcDbEntity
  8
0
100
AcDbVertex
100
AcDb2dVertex
 10
-213.432003686291
 20
-1082.7035097606
  0
VERTEX
  5
4C4
100
AcDbEntity
  8
0
100
AcDbVertex
100
AcDb2dVertex
 10
-213.432003686291
 20
-1075.7035097606
  0
SEQEND
  5
4C5
100
AcDbEntity
  8
0
  0
POLYLINE
  5
4C6
100
AcDbEntity
  8
0
 62
           3
100
AcDb2dPolyline
 66
           1
 10
0.0
 20
0.0
 30
0.0
 70
           1
  0
VERTEX
  5
4C7
100
AcDbEntity
  8
0
100
AcDbVertex
100
AcDb2dVertex
 10
-222.13639660775
 20
-1060.7035097606
  0
VERTEX
  5
4C8
100
AcDbEntity
  8
0
100
AcDbVertex
100
AcDb2dVertex
 10
-222.13639660775
 20
-1067.7035097606
  0
VERTEX
  5
4C9
100
AcDbEntity
  8
0
100
AcDbVertex
100
AcDb2dVertex
 10
-213.332003686291
 20
-1067.7035097606
  0
VERTEX
  5
4CA
100
AcDbEntity
  8
0
100
AcDbVertex
100
AcDb2dVertex
 10
-213.332003686291
 20
-1060.7035097606
  0
SEQEND
  5
4CB
100
AcDbEntity
  8
0
  0
LINE
  5
4CC
100
AcDbEntity
  8
0
 62
           2
100
AcDbLine
 10
-253.250898978109
 20
-1136.3035097606
 11
-251.925003778878
 21
-1132.931342453099
  0
LINE
  5
4CD
100
AcDbEntity
  8
0
 62
           2
100
AcDbLine
 10
-253.250898978109
 20
-1136.3035097606
 11
-250.416556399068
 21
-1134.046074806108
  0
LINE
  5
4CF
100
AcDbEntity
  8
0
 62
           2
100
AcDbLine
 10
-64.881727844969
 20
-1139.834741778822
 11
-61.832090061491
 21
-1140.422857683304
  0
LINE
  5
4D0
100
AcDbEntity
  8
0
 62
           2
100
AcDbLine
 10
-64.881727844969
 20
-1139.834741778822
 11
-62.534722004377
 21
-1141.868883984212
  0
LINE
  5
4D2
100
AcDbEntity
  8
0
 62
           2
100
AcDbLine
 10
-121.28434244589
 20
-1144.024645476775
 11
-122.784004758455
 21
-1146.744421915343
  0
LINE
  5
4D3
100
AcDbEntity
  8
0
 62
           2
100
AcDbLine
 10
-121.28434244589
 20
-1144.024645476775
 11
-123.942976324954
 21
-1145.630209808907
  0
LINE
  5
4D5
100
AcDbEntity
  8
0
 62
           2
100
AcDbLine
 10
-202.686776002365
 20
-1028.703509760599
 11
-204.596236004881
 21
-1026.253992782436
  0
LINE
  5
4D6
100
AcDbEntity
  8
0
 62
           2
100
AcDbLine
 10
-202.686776002365
 20
-1028.703509760599
 11
-203.115658382972
 21
-1025.62743582925
  0
INSERT
  5
645
100
AcDbEntity
  8
0
100
AcDbBlockReference
  2
*D111
 10
0.0
 20
0.0
  0
INSERT
  5
64E
100
AcDbEntity
  8
0
100
AcDbBlockReference
  2
*D112
 10
0.0
 20
0.0
  0
INSERT
  5
657
100
AcDbEntity
  8
0
100
AcDbBlockReference
  2
*D113
 10
0.0
 20
0.0
  0
ENDSEC
  0
SECTION
  2
OBJECTS
  0
DICTIONARY
  5
19
100
AcDbDictionary
  3
ACAD_GROUP
350
1A
  3
ACAD_MLINESTYLE
350
1B
  0
DICTIONARY
  5
1A
102
{ACAD_REACTORS
330
19
102
}
100
AcDbDictionary
  0
DICTIONARY
  5
1B
102
{ACAD_REACTORS
330
19
102
}
100
AcDbDictionary
  3
STANDARD
350
1C
  0
MLINESTYLE
  5
1C
102
{ACAD_REACTORS
330
1B
102
}
100
AcDbMlineStyle
  2
STANDARD
 70
           0
  3

 62
           0
 51
90.0
 52
90.0
 71
           2
 49
0.5
 62
         256
  6
BYLAYER
 49
-0.5
 62
         256
  6
BYLAYER
  0
ENDSEC
  0
EOF
